<?xml version="1.0" standalone="no"?>
<!DOCTYPE svg PUBLIC "-//W3C//DTD SVG 1.1//EN" "http://www.w3.org/Graphics/SVG/1.1/DTD/svg11.dtd" >
<svg xmlns="http://www.w3.org/2000/svg" xmlns:xlink="http://www.w3.org/1999/xlink" version="1.1">
<metadata>
Created by FontForge 20201107 at Wed Sep  1 18:46:30 2021
 By 
Copyright 2020 The Inter Project Authors (https://github.com/rsms/inter)
</metadata>
<defs>
<font id="Inter-Light" horiz-adv-x="0" >
  <font-face 
    font-family="Inter Light"
    font-weight="300"
    font-stretch="normal"
    units-per-em="2816"
    panose-1="2 0 5 3 0 0 0 2 0 4"
    ascent="2252"
    descent="-564"
    x-height="1536"
    cap-height="2048"
    bbox="-2037 -900 7274 3017"
    underline-thickness="192"
    underline-position="-560"
    unicode-range="U+0020-1F852"
  />
<missing-glyph horiz-adv-x="2748" 
d="M233 -640v512h2282v-512h-2282zM233 1472v512h2282v-512h-2282zM233 2176v512h2282v-512h-2282zM233 64v512h2282v-512h-2282zM233 768v512h2282v-512h-2282z" />
    <glyph glyph-name=".notdef" horiz-adv-x="2748" 
d="M233 -640v512h2282v-512h-2282zM233 1472v512h2282v-512h-2282zM233 2176v512h2282v-512h-2282zM233 64v512h2282v-512h-2282zM233 768v512h2282v-512h-2282z" />
    <glyph glyph-name=".null" 
 />
    <glyph glyph-name="nonmarkingreturn" horiz-adv-x="938" 
 />
    <glyph glyph-name="uni0020" unicode=" " horiz-adv-x="792" 
 />
    <glyph glyph-name="uni0021" unicode="!" horiz-adv-x="768" 
d="M485 2048l-13 -1461h-176l-13 1461h202zM384 -15q-59 0 -101.5 42.5t-42.5 101.5q0 60 42.5 102t101.5 42t101.5 -42t42.5 -102q0 -39 -19.5 -72t-52 -52.5t-72.5 -19.5z" />
    <glyph glyph-name="uni0022" unicode="&#x22;" horiz-adv-x="1077" 
d="M387 2048v-683h-168v683h168zM856 2048v-683h-168v683h168z" />
    <glyph glyph-name="uni0023" unicode="#" horiz-adv-x="1779" 
d="M1004 0l336 2048h155l-336 -2048h-155zM53 591l26 154h1528l-26 -154h-1528zM284 0l336 2048h155l-336 -2048h-155zM172 1303l25 154h1528l-25 -154h-1528z" />
    <glyph glyph-name="uni0024" unicode="$" horiz-adv-x="1772" 
d="M821 -256v2560h131v-2560h-131zM1384 1536q-17 171 -151 272t-337 101q-143 0 -251.5 -49t-170 -135.5t-61.5 -196.5q0 -81 35 -142t94.5 -104.5t132 -74.5t146.5 -52l216 -62q98 -27 196 -69t179.5 -105.5t131 -155t49.5 -219.5q0 -164 -85 -295t-244 -207.5t-381 -76.5
q-209 0 -363 69.5t-242 192.5t-99 285h192q10 -121 80 -205t182 -127.5t250 -43.5q153 0 272.5 51.5t188 144t68.5 215.5q0 104 -54 174.5t-150.5 118.5t-223.5 85l-245 72q-241 72 -374 199t-133 324q0 165 88.5 290.5t240 196t340.5 70.5q191 0 338 -70t233.5 -192.5
t92.5 -278.5h-181z" />
    <glyph glyph-name="uni0025" unicode="%" horiz-adv-x="2251" 
d="M1264 380v93q0 115 46 207.5t131 146.5t202 54q118 0 202 -54t129 -146.5t45 -207.5v-93q0 -115 -45.5 -207t-129.5 -146.5t-201 -54.5q-119 0 -203.5 54.5t-130 146.5t-45.5 207zM1421 473v-93q0 -113 55.5 -192.5t166.5 -79.5q108 0 163 79.5t55 192.5v93
q0 113 -54 192.5t-164 79.5q-109 0 -165.5 -79.5t-56.5 -192.5zM232 1575v93q0 115 46 207t131 146.5t202 54.5q118 0 202 -54.5t129 -146.5t45 -207v-93q0 -115 -45.5 -207.5t-129.5 -146.5t-201 -54q-119 0 -203.5 54t-130 146.5t-45.5 207.5zM389 1668v-93
q0 -113 55.5 -192.5t166.5 -79.5q108 0 163 79.5t55 192.5v93q0 113 -54 192.5t-164 79.5q-109 0 -165.5 -79.5t-56.5 -192.5zM324 0l1407 2048h177l-1407 -2048h-177z" />
    <glyph glyph-name="uni0026" unicode="&#x26;" horiz-adv-x="1748" 
d="M783 -28q-189 0 -330 73.5t-219 200.5t-78 287q0 116 47.5 209.5t137.5 178t218 175.5l297 221q106 76 161.5 149.5t55.5 180.5q0 103 -77.5 184.5t-200.5 81.5q-86 0 -153.5 -43t-107 -111.5t-39.5 -143.5q0 -70 36 -140.5t97 -148t136 -170.5l936 -1156h-216l-816 1001
q-103 126 -183 225.5t-126 192t-46 198.5q0 131 61 233.5t168.5 161.5t246.5 59q142 0 246.5 -58t162 -154t57.5 -212q0 -139 -71.5 -246t-207.5 -210l-372 -278q-153 -115 -210 -213t-57 -167q0 -108 56 -199t155.5 -146t228.5 -56q128 1 241 51.5t202.5 144.5t144 225
t63.5 292l173 -2q-4 -165 -44.5 -279.5t-92.5 -188.5t-91 -119l-22 -30t-23 -30q-100 -110 -248.5 -167t-296.5 -57z" />
    <glyph glyph-name="uni0027" unicode="'" horiz-adv-x="608" 
d="M387 2048v-683h-168v683h168z" />
    <glyph glyph-name="uni0028" unicode="(" horiz-adv-x="976" 
d="M309 864q0 360 91 680t261 600h162q-73 -118 -133.5 -267t-104.5 -318t-68 -345.5t-24 -349.5q0 -231 42 -466t116.5 -446t171.5 -368h-162q-170 281 -261 601t-91 679z" />
    <glyph glyph-name="uni0029" unicode=")" horiz-adv-x="976" 
d="M667 864q0 -360 -91 -680t-261 -600h-162q73 118 133.5 267t104.5 318t68 346t24 349q0 231 -42 466t-116.5 446t-171.5 368h162q170 -281 261 -601t91 -679z" />
    <glyph glyph-name="uni002A" unicode="*" horiz-adv-x="1408" 
d="M629 896l11 467l-399 -244l-74 130l412 223l-412 223l74 130l399 -244l-11 467h150l-11 -467l399 244l74 -130l-412 -223l412 -223l-74 -130l-399 244l11 -467h-150z" />
    <glyph glyph-name="uni002B" unicode="+" horiz-adv-x="1835" 
d="M832 167v1266h171v-1266h-171zM284 715v170h1267v-170h-1267z" />
    <glyph glyph-name="uni002C" unicode="," horiz-adv-x="766" 
d="M531 280l-18 -107q-17 -108 -48 -238t-64 -247t-57 -188h-137q13 68 33.5 173t42.5 232.5t40 262.5l14 112h194z" />
    <glyph glyph-name="uni002D" unicode="-" horiz-adv-x="1276" 
d="M1064 962v-168h-852v168h852z" />
    <glyph glyph-name="uni002E" unicode="." horiz-adv-x="755" 
d="M377 -15q-59 0 -101.5 42.5t-42.5 101.5q0 60 42.5 102t101.5 42q60 0 102 -42t42 -102q0 -39 -19.5 -72t-52 -52.5t-72.5 -19.5z" />
    <glyph glyph-name="uni002F" unicode="/" horiz-adv-x="973" 
d="M900 2144l-660 -2452h-167l660 2452h167z" />
    <glyph glyph-name="uni0030" unicode="0" horiz-adv-x="1728" 
d="M864 -28q-216 0 -368.5 124.5t-234 360.5t-81.5 567q0 330 81.5 565.5t235 361t367.5 125.5t367.5 -125.5t235 -361t81.5 -565.5q0 -331 -81.5 -567t-234 -360.5t-368.5 -124.5zM864 140q237 0 370 231.5t133 652.5q0 280 -60.5 478.5t-173 303.5t-269.5 105
q-235 0 -369 -233.5t-134 -653.5q0 -280 60.5 -478t173 -302t269.5 -104z" />
    <glyph glyph-name="uni0031" unicode="1" horiz-adv-x="1255" 
d="M860 2048v-2048h-187v1852h-12l-480 -319v194l484 321h195z" />
    <glyph glyph-name="uni0032" unicode="2" horiz-adv-x="1719" 
d="M228 0v137l669 752q131 148 211 253t116.5 194t36.5 185q0 117 -54.5 204.5t-149.5 136.5t-214 49q-126 0 -220.5 -54t-146.5 -148t-52 -216h-179q0 170 78.5 301.5t215 206.5t309.5 75q171 0 304 -73.5t209 -199.5t76 -282q0 -113 -39.5 -219t-135.5 -236t-266 -318
l-508 -567v-13h1013v-168h-1273z" />
    <glyph glyph-name="uni0033" unicode="3" horiz-adv-x="1771" 
d="M893 -28q-189 0 -338 68.5t-236 190.5t-92 281h189q5 -112 69 -195.5t170 -130t236 -46.5q142 0 250.5 53t170 145.5t61.5 209.5q0 124 -63 219t-180.5 148t-280.5 53h-120v168h120q133 0 235.5 48.5t161.5 136.5t59 207q0 113 -51 199t-143.5 135t-215.5 49
q-119 0 -218 -46t-159.5 -130t-64.5 -199h-181q4 160 88.5 281.5t225 190t311.5 68.5q181 0 313 -74t204.5 -196.5t72.5 -269.5q0 -175 -95 -299.5t-256 -172.5v-13q196 -39 308.5 -173.5t112.5 -329.5q0 -164 -86 -294.5t-235.5 -206t-342.5 -75.5z" />
    <glyph glyph-name="uni0034" unicode="4" horiz-adv-x="1764" 
d="M179 440v152l913 1456h112v-255h-83l-733 -1172v-13h1197v-168h-1406zM1135 0v488v70v1490h178v-2048h-178z" />
    <glyph glyph-name="uni0035" unicode="5" horiz-adv-x="1677" 
d="M827 -28q-171 0 -305.5 69.5t-214 191.5t-84.5 279h181q9 -163 128 -267.5t295 -104.5q137 0 244 65.5t167.5 180t60.5 258.5q-1 150 -65 264.5t-173.5 179.5t-245.5 65q-103 1 -202 -34t-165 -90l-187 24l123 995h1012v-168h-855l-82 -685h10q68 57 165.5 93t206.5 36
q181 0 325.5 -87t229 -239.5t84.5 -350.5q0 -194 -84.5 -346.5t-232 -240.5t-336.5 -88z" />
    <glyph glyph-name="uni0036" unicode="6" horiz-adv-x="1717" 
d="M873 -28q-127 1 -248 51.5t-218 163t-154 297.5t-57 455q0 250 44 458t132 360t220 235.5t309 83.5q166 0 293 -68.5t206 -190.5t99 -281h-184q-28 162 -133 267t-281 105q-252 0 -390 -233.5t-139 -662.5h13q49 91 126.5 157.5t176.5 104t208 37.5q171 0 313 -86.5
t227 -237t85 -343.5q0 -183 -80.5 -337t-226 -245t-341.5 -90zM873 140q134 0 239.5 68t166.5 182.5t61 253.5t-61 252t-166.5 180t-239.5 67q-102 0 -190 -41.5t-152.5 -113t-98 -163.5t-25.5 -193q11 -141 73.5 -252.5t164 -175.5t228.5 -64z" />
    <glyph glyph-name="uni0037" unicode="7" horiz-adv-x="1586" 
d="M287 0l933 1867v13h-1075v168h1271v-176l-932 -1872h-197z" />
    <glyph glyph-name="uni0038" unicode="8" horiz-adv-x="1723" 
d="M861 -28q-196 0 -349 74t-240 202.5t-87 290.5q0 127 53 237.5t146 186t209 98.5v11q-151 44 -243 173.5t-91 294.5q-1 153 78 274t215.5 191.5t308.5 70.5q171 0 307 -70.5t215.5 -191.5t80.5 -274q-1 -164 -93 -294.5t-242 -173.5v-11q116 -22 208 -98t146 -186.5
t54 -237.5q0 -162 -87.5 -290.5t-240 -202.5t-348.5 -74zM861 140q146 0 256.5 52.5t173 144.5t62.5 211q0 123 -65 219.5t-176 153t-251 56.5t-251.5 -56.5t-176 -153t-64.5 -219.5q0 -119 61.5 -211t173 -144.5t257.5 -52.5zM861 1137q120 0 215 51t150.5 139.5
t56.5 201.5q-1 112 -56 198.5t-149.5 135t-216.5 48.5t-217.5 -48.5t-150 -135t-53.5 -198.5q-1 -113 54.5 -201.5t151 -139.5t215.5 -51z" />
    <glyph glyph-name="uni0039" unicode="9" horiz-adv-x="1717" 
d="M844 2076q128 -1 248.5 -51.5t217.5 -162t154 -296t57 -453.5q0 -251 -44 -460t-131.5 -361.5t-220 -236t-309.5 -83.5q-165 0 -292.5 69t-206.5 191.5t-98 283.5h184q27 -164 132.5 -270t280.5 -106q251 0 390 234t139 666h-13q-48 -90 -125.5 -157t-176.5 -104.5
t-209 -37.5q-171 0 -313 86.5t-227 237t-85 343.5q0 182 80.5 334.5t226 244t341.5 89.5zM844 1908q-133 0 -238.5 -67.5t-167 -181t-61.5 -251.5q0 -139 61.5 -252.5t167 -180t238.5 -66.5q102 0 190 41.5t152.5 113.5t98 163.5t26.5 192.5q-12 140 -74.5 250.5t-164 174
t-228.5 63.5z" />
    <glyph glyph-name="uni003A" unicode=":" horiz-adv-x="755" 
d="M377 39q-59 0 -101.5 42t-42.5 102q0 59 42.5 101.5t101.5 42.5q60 0 102 -42.5t42 -101.5q0 -40 -19.5 -72.5t-52 -52t-72.5 -19.5zM377 1147q-59 0 -101.5 42t-42.5 102q0 59 42.5 101.5t101.5 42.5q60 0 102 -42.5t42 -101.5q0 -40 -19.5 -72.5t-52 -52t-72.5 -19.5z
" />
    <glyph glyph-name="uni003B" unicode=";" horiz-adv-x="768" 
d="M531 280l-18 -107q-17 -108 -48 -238t-64 -247t-57 -188h-137q13 68 33.5 173t42.5 232.5t40 262.5l14 112h194zM413 1147q-59 0 -101.5 42t-42.5 102q0 59 42.5 101.5t101.5 42.5q60 0 102 -42.5t42 -101.5q0 -40 -19.5 -72.5t-52 -52t-72.5 -19.5z" />
    <glyph glyph-name="uni003C" unicode="&#x3c;" horiz-adv-x="1835" 
d="M305 736v128l1224 675v-196l-1004 -542l10 18v-38l-10 18l1004 -542v-196z" />
    <glyph glyph-name="uni003D" unicode="=" horiz-adv-x="1835" 
d="M348 1004v165h1139v-165h-1139zM348 431v165h1139v-165h-1139z" />
    <glyph glyph-name="uni003E" unicode="&#x3e;" horiz-adv-x="1835" 
d="M1529 736l-1224 -675v196l1004 542l-9 -18v38l9 -18l-1004 542v196l1224 -675v-128z" />
    <glyph glyph-name="uni003F" unicode="?" horiz-adv-x="1401" 
d="M544 587v54q1 158 35 257t100.5 167.5t165.5 131.5q74 48 124.5 101.5t77 118t26.5 140.5q0 108 -50.5 189t-136.5 125.5t-191 44.5q-100 0 -186.5 -43.5t-141 -128t-59.5 -208.5h-189q5 165 82 286t206 187.5t288 66.5q166 0 292 -68.5t197 -187t71 -271.5
q0 -101 -32 -184t-95.5 -153t-158.5 -132q-90 -60 -143 -119t-76 -134.5t-25 -185.5v-54h-181zM640 -15q-59 0 -101.5 42.5t-42.5 101.5q0 60 42.5 102t101.5 42t101.5 -42t42.5 -102q0 -39 -19.5 -72t-52 -52.5t-72.5 -19.5z" />
    <glyph glyph-name="uni0040" unicode="@" horiz-adv-x="2636" 
d="M1371 -541q-286 0 -514 88t-388.5 253.5t-246 398.5t-85.5 521q0 282 86.5 512t247 395t384 254.5t497.5 89.5q268 0 480 -93.5t361 -254.5t227.5 -366.5t78.5 -429.5q0 -142 -21.5 -280t-73.5 -250t-144 -178.5t-233 -66.5q-74 0 -145.5 24.5t-122 81t-58.5 151.5h-10
q-32 -72 -90 -131.5t-142.5 -94.5t-195.5 -32q-126 3 -226.5 56t-171 145t-107.5 213.5t-37 262.5q0 136 41.5 251t115 201t172.5 137t213 59q102 7 188 -19.5t146 -76.5t86 -113h10v181h163v-927q0 -105 41.5 -163.5t131.5 -58.5q109 0 177.5 71.5t100.5 212t32 346.5
q0 156 -43.5 302.5t-126.5 272t-204 220t-276.5 147.5t-344.5 53q-234 0 -425 -79t-328.5 -226t-211.5 -350.5t-74 -453.5q0 -253 74 -457t213.5 -349t337.5 -223t446 -78q110 0 216.5 21.5t194 52.5t141.5 61l51 -140q-74 -40 -175.5 -73t-214 -52t-218.5 -19zM1284 208
q136 0 229 63t140.5 181t47.5 284q0 167 -50.5 275t-143 160.5t-218.5 52.5q-122 0 -213.5 -66.5t-143 -177.5t-51.5 -244q0 -141 45.5 -261t135 -193.5t222.5 -73.5z" />
    <glyph glyph-name="uni0041" unicode="A" horiz-adv-x="1848" 
d="M275 0h-196l745 2048h200l745 -2048h-196l-642 1805h-14zM416 785h1016v-168h-1016v168z" />
    <glyph glyph-name="uni0042" unicode="B" horiz-adv-x="1823" 
d="M272 0v2048h691q200 0 333.5 -70t200.5 -191t67 -275q0 -128 -43 -219t-117 -147t-165 -81v-16q99 -7 192 -69.5t153 -174.5t60 -268q0 -155 -69 -276.5t-211.5 -191t-362.5 -69.5h-729zM459 168h542q237 0 350.5 105t113.5 264q0 117 -56.5 212.5t-159 151.5t-240.5 56
h-550v-789zM459 1123h521q121 0 212 50t142 138t51 201q0 163 -106 265.5t-316 102.5h-504v-757z" />
    <glyph glyph-name="uni0043" unicode="C" horiz-adv-x="2044" 
d="M1876 1408h-188q-21 105 -75.5 194.5t-136.5 156.5t-186 104t-225 37q-194 0 -353.5 -101t-255 -296.5t-95.5 -478.5q0 -285 95.5 -480t255 -295.5t353.5 -100.5q121 0 225 37t186 103.5t136.5 156.5t75.5 195h188q-25 -141 -93.5 -262.5t-174 -212.5t-242.5 -142
t-301 -51q-258 0 -458 129.5t-313.5 365.5t-113.5 557t113.5 557t313.5 365.5t458 129.5q164 0 301 -50.5t242.5 -142t174 -212.5t93.5 -263z" />
    <glyph glyph-name="uni0044" unicode="D" horiz-adv-x="2020" 
d="M872 0h-600v2048h636q293 0 501.5 -122t319.5 -350t111 -547q0 -322 -113.5 -552.5t-330 -353.5t-524.5 -123zM459 168h402q264 0 442 104t267 297t89 460q-1 265 -87.5 456t-256 293t-418.5 102h-438v-1712z" />
    <glyph glyph-name="uni0045" unicode="E" horiz-adv-x="1671" 
d="M272 0v2048h1188v-168h-1001v-771h938v-168h-938v-773h1021v-168h-1208z" />
    <glyph glyph-name="uni0046" unicode="F" horiz-adv-x="1651" 
d="M272 0v2048h1185v-168h-998v-771h905v-168h-905v-941h-187z" />
    <glyph glyph-name="uni0047" unicode="G" horiz-adv-x="2088" 
d="M1689 1408q-28 102 -82 191.5t-133.5 157t-183 105.5t-230.5 38q-200 0 -358 -104t-249.5 -300t-91.5 -472q0 -275 92 -471t252.5 -300.5t367.5 -104.5q189 0 334 84t226.5 240t79.5 371l60 -19h-656v168h778v-168q0 -262 -106 -453t-291 -295t-425 -104
q-268 0 -469 129.5t-312.5 366t-111.5 556.5q0 241 64 435t181.5 332t278.5 211.5t356 73.5q168 0 307.5 -53t246 -145.5t175 -213t92.5 -256.5h-192z" />
    <glyph glyph-name="uni0048" unicode="H" horiz-adv-x="2080" 
d="M272 0v2048h187v-939h1162v939h187v-2048h-187v941h-1162v-941h-187z" />
    <glyph glyph-name="uni0049" unicode="I" horiz-adv-x="731" 
d="M459 2048v-2048h-187v2048h187z" />
    <glyph glyph-name="uni004A" unicode="J" horiz-adv-x="1507" 
d="M1048 2048h187v-1477q-1 -200 -72 -333.5t-196 -199.5t-287 -66q-159 0 -284 59t-196.5 166t-71.5 251h184q0 -91 48 -160.5t131.5 -108.5t188.5 -39q109 0 191.5 46t129.5 141.5t47 243.5v1477z" />
    <glyph glyph-name="uni004B" unicode="K" horiz-adv-x="1803" 
d="M272 0v2048h187v-1103h18l1000 1103h246l-875 -947l871 -1101h-228l-759 971l-273 -306v-665h-187z" />
    <glyph glyph-name="uni004C" unicode="L" horiz-adv-x="1584" 
d="M272 0v2048h187v-1880h976v-168h-1163z" />
    <glyph glyph-name="uni004D" unicode="M" horiz-adv-x="2480" 
d="M272 2048h216l743 -1784h18l743 1784h216v-2048h-176v1653h-16l-691 -1653h-170l-691 1653h-16v-1653h-176v2048z" />
    <glyph glyph-name="uni004E" unicode="N" horiz-adv-x="2139" 
d="M1867 2048v-2048h-182l-1210 1715h-16v-1715h-187v2048h181l1214 -1717h16v1717h184z" />
    <glyph glyph-name="uni004F" unicode="O" horiz-adv-x="2131" 
d="M1951 1024q0 -320 -114 -556.5t-313.5 -366t-458.5 -129.5t-458.5 129.5t-313 366t-113.5 556.5t113.5 556.5t313.5 366t458 129.5q259 0 458.5 -129.5t313.5 -366t114 -556.5zM1769 1024q0 275 -92 471.5t-251 300.5t-361 104q-201 0 -360 -104t-251.5 -300t-92.5 -472
q0 -275 92 -471t251 -300.5t361 -104.5t361.5 104t251.5 300.5t91 471.5z" />
    <glyph glyph-name="uni0050" unicode="P" horiz-adv-x="1761" 
d="M272 0v2048h661q218 0 364.5 -83.5t221 -226.5t74.5 -322t-74 -322.5t-220 -227t-363 -83.5h-520v168h515q161 0 267 60.5t158.5 165.5t52.5 239t-52.5 239t-159 165t-269.5 60h-469v-1880h-187z" />
    <glyph glyph-name="uni0051" unicode="Q" horiz-adv-x="2131" 
d="M1039 640h208l262 -347l44 -58l322 -427h-208l-236 315l-42 56zM1951 1024q0 -320 -114 -556.5t-313.5 -366t-458.5 -129.5t-458.5 129.5t-313 366t-113.5 556.5t113.5 556.5t313.5 366t458 129.5q259 0 458.5 -129.5t313.5 -366t114 -556.5zM1769 1024q0 275 -92 471.5
t-251 300.5t-361 104q-201 0 -360 -104t-251.5 -300t-92.5 -472q0 -275 92 -471t251 -300.5t361 -104.5t361.5 104t251.5 300.5t91 471.5z" />
    <glyph glyph-name="uni0052" unicode="R" horiz-adv-x="1777" 
d="M272 0v2048h661q218 0 364.5 -78.5t221 -217t74.5 -317.5t-74.5 -316t-220.5 -214t-362 -77h-563v171h558q160 0 266.5 53t159 151t52.5 232t-53 234.5t-159.5 155.5t-268.5 55h-469v-1880h-187zM1175 924l504 -924h-216l-499 924h211z" />
    <glyph glyph-name="uni0053" unicode="S" horiz-adv-x="1772" 
d="M1384 1536q-17 171 -151 272t-337 101q-143 0 -251.5 -49t-170 -135.5t-61.5 -196.5q0 -81 35 -142t94.5 -104.5t132 -74.5t146.5 -52l216 -62q98 -27 196 -69t179.5 -105.5t131 -155t49.5 -219.5q0 -164 -85 -295t-244 -207.5t-381 -76.5q-209 0 -363 69.5t-242 192.5
t-99 285h192q10 -121 80 -205t182 -127.5t250 -43.5q153 0 272.5 51.5t188 144t68.5 215.5q0 104 -54 174.5t-150.5 118.5t-223.5 85l-245 72q-241 72 -374 199t-133 324q0 165 88.5 290.5t240 196t340.5 70.5q191 0 338 -70t233.5 -192.5t92.5 -278.5h-181z" />
    <glyph glyph-name="uni0054" unicode="T" horiz-adv-x="1781" 
d="M148 1880v168h1485v-168h-649v-1880h-187v1880h-649z" />
    <glyph glyph-name="uni0055" unicode="U" horiz-adv-x="2096" 
d="M1637 2048h187v-1356q0 -209 -98 -373.5t-272.5 -259t-405.5 -94.5q-230 0 -405 95t-273 259t-98 373v1356h187v-1343q0 -163 73 -290.5t205.5 -200.5t310.5 -73t311 73t205.5 200.5t72.5 290.5v1343z" />
    <glyph glyph-name="uni0056" unicode="V" horiz-adv-x="1848" 
d="M275 2048l640 -1805h18l640 1805h196l-745 -2048h-200l-745 2048h196z" />
    <glyph glyph-name="uni0057" unicode="W" horiz-adv-x="2619" 
d="M628 0l-561 2048h190l464 -1761h16l464 1761h216l464 -1761h16l464 1761h191l-561 -2048h-200l-475 1737h-13l-475 -1737h-200z" />
    <glyph glyph-name="uni0058" unicode="X" horiz-adv-x="1755" 
d="M304 2048l567 -889h13l567 889h221l-659 -1024l659 -1024h-221l-567 879h-13l-567 -879h-221l669 1024l-669 1024h221z" />
    <glyph glyph-name="uni0059" unicode="Y" horiz-adv-x="1824" 
d="M80 2048h216l607 -972h18l607 972h216l-739 -1161v-887h-186v887z" />
    <glyph glyph-name="uni005A" unicode="Z" horiz-adv-x="1741" 
d="M191 0v141l1137 1739h-1143v168h1366v-141l-1138 -1739h1148v-168h-1370z" />
    <glyph glyph-name="uni005B" unicode="[" horiz-adv-x="976" 
d="M339 -416v2560h512v-152h-342v-2256h342v-152h-512z" />
    <glyph glyph-name="uni005C" unicode="\" horiz-adv-x="973" 
d="M733 -308l-660 2452h166l660 -2452h-166z" />
    <glyph glyph-name="uni005D" unicode="]" horiz-adv-x="976" 
d="M637 2144v-2560h-512v152h342v2256h-342v152h512z" />
    <glyph glyph-name="uni005E" unicode="^" horiz-adv-x="1256" 
d="M597 1896h62v-88h-62v88zM119 1120l410 864h198l410 -864h-181l-341 728h26l-338 -728h-184z" />
    <glyph glyph-name="uni005F" unicode="_" horiz-adv-x="1249" 
d="M1253 0v-168h-1258v168h1258z" />
    <glyph glyph-name="uni0060" unicode="`" horiz-adv-x="1400" 
d="M769 1749l-307 454h211l256 -454h-160z" />
    <glyph glyph-name="uni0061" unicode="a" horiz-adv-x="1567" 
d="M664 -35q-139 0 -254 54.5t-183 158t-68 251.5q0 114 43 192t122 128t187 79t238 45q129 16 218.5 28t136.5 38t47 84v36q0 157 -93.5 247.5t-268.5 90.5q-166 0 -270.5 -73t-146.5 -172l-169 61q52 126 144 201.5t206 109t231 33.5q88 0 183.5 -23t177.5 -79.5t133 -157
t51 -254.5v-1043h-178v243h-11q-32 -68 -95 -132t-158 -105t-223 -41zM688 128q142 0 246 63t160.5 167.5t56.5 230.5v222q-20 -19 -66.5 -34t-107 -26.5t-120.5 -19.5t-108 -14q-130 -16 -222 -50t-141 -93.5t-49 -152.5q0 -140 100 -216.5t251 -76.5z" />
    <glyph glyph-name="uni0062" unicode="b" horiz-adv-x="1727" 
d="M272 0v2048h179v-805h16q30 69 86.5 142t149 122.5t233.5 49.5q189 0 332 -99.5t223 -278t80 -415.5q0 -238 -79.5 -417t-222 -279t-330.5 -100q-140 0 -233.5 50t-150.5 123.5t-88 143.5h-22v-285h-173zM448 767q0 -186 55.5 -329.5t160 -225t253.5 -81.5
q153 0 259 84.5t161 228.5t55 323q0 177 -54.5 319t-160.5 225.5t-260 83.5q-150 0 -254.5 -80.5t-159.5 -222t-55 -325.5z" />
    <glyph glyph-name="uni0063" unicode="c" horiz-adv-x="1567" 
d="M835 -32q-206 0 -358.5 103t-236.5 282t-84 408q0 231 85.5 411t237.5 282.5t353 102.5q154 0 279 -59.5t206.5 -167t102.5 -250.5h-180q-28 130 -134.5 222.5t-270.5 92.5q-147 0 -260 -79.5t-176.5 -221t-63.5 -327.5q0 -187 62 -330.5t174.5 -224.5t263.5 -81
q102 0 186.5 38.5t142 109.5t77.5 169h180q-20 -139 -98.5 -247.5t-203 -170.5t-284.5 -62z" />
    <glyph glyph-name="uni0064" unicode="d" horiz-adv-x="1727" 
d="M788 -32q-189 0 -331 100t-221.5 279t-79.5 417q0 237 79.5 415.5t222.5 278t333 99.5q140 0 233 -49.5t149 -122.5t87 -142h16v805h179v-2048h-174v285h-21q-31 -70 -88 -143.5t-150.5 -123.5t-233.5 -50zM809 131q149 0 254 81.5t160.5 225t55.5 329.5q0 184 -55 325.5
t-160 222t-255 80.5q-154 0 -259.5 -83.5t-160 -225.5t-54.5 -319q0 -179 55 -323t160.5 -228.5t258.5 -84.5z" />
    <glyph glyph-name="uni0065" unicode="e" horiz-adv-x="1635" 
d="M856 -32q-215 0 -372 100.5t-242.5 279t-85.5 411.5q0 232 85.5 412.5t237 283t350.5 102.5q125 0 241 -45.5t208.5 -139t146.5 -235t54 -334.5v-88h-1200v157h1018q0 148 -59.5 266.5t-165 187.5t-243.5 69q-146 0 -257 -78t-173.5 -206t-63.5 -280v-94
q0 -183 63.5 -319.5t180.5 -211.5t277 -75q109 0 191.5 34t139 91.5t85.5 126.5l169 -55q-35 -97 -114.5 -179t-198 -131.5t-272.5 -49.5z" />
    <glyph glyph-name="uni0066" unicode="f" horiz-adv-x="988" 
d="M867 1536v-155h-755v155h755zM348 0v1761q0 124 57.5 209t150.5 129t197 44q70 0 116.5 -11.5t73.5 -22.5l-52 -156q-20 6 -49 14t-73 8q-116 0 -179 -65t-63 -186l-1 -1724h-178z" />
    <glyph glyph-name="uni0067" unicode="g" horiz-adv-x="1692" 
d="M821 -608q-157 0 -275 40.5t-199 110.5t-126 157l146 96q33 -58 88.5 -114t145 -93t220.5 -37q204 0 329.5 102t125.5 317v346h-16q-31 -70 -89 -139.5t-151.5 -115.5t-231.5 -46q-184 0 -326.5 91t-224 260.5t-81.5 404.5q0 233 79.5 410t222.5 276t333 99
q141 0 234 -49.5t149.5 -122.5t88.5 -142h18v293h174v-1576q0 -195 -83 -321t-226 -186.5t-325 -60.5zM809 179q148 0 253 71.5t161 205.5t56 319q0 180 -55 319.5t-159.5 220t-255.5 80.5q-154 0 -260 -83t-160 -223.5t-54 -313.5q0 -176 55 -310.5t161 -210t258 -75.5z
" />
    <glyph glyph-name="uni0068" unicode="h" horiz-adv-x="1643" 
d="M413 960v-960h-178v2048h178v-753h16q54 119 167.5 190t287.5 71q156 0 274 -64t184 -189t66 -308v-995h-179v984q0 190 -105.5 299.5t-284.5 109.5q-123 0 -219 -52t-151.5 -149.5t-55.5 -231.5z" />
    <glyph glyph-name="uni0069" unicode="i" horiz-adv-x="653" 
d="M237 0v1536h179v-1536h-179zM328 1800q-55 0 -94 37.5t-39 90.5t39 90.5t94 37.5t94 -37.5t39 -90.5t-39 -90.5t-94 -37.5z" />
    <glyph glyph-name="uni006A" unicode="j" horiz-adv-x="653" 
d="M237 1536h179v-1685q0 -131 -48.5 -226.5t-140.5 -148t-222 -52.5h-20t-22 1l2 167h19h19q110 0 172 68t62 191v1685zM325 1800q-54 0 -93.5 37.5t-39.5 90.5t39.5 90.5t93.5 37.5q55 0 94.5 -37.5t39.5 -90.5t-39.5 -90.5t-94.5 -37.5z" />
    <glyph glyph-name="uni006B" unicode="k" horiz-adv-x="1479" 
d="M397 580l-2 233h40l720 723h225l-711 -712l-16 -3zM235 0v2048h178v-2048h-178zM1192 0l-624 789l128 123l724 -912h-228z" />
    <glyph glyph-name="uni006C" unicode="l" horiz-adv-x="648" 
d="M413 2048v-2048h-178v2048h178z" />
    <glyph glyph-name="uni006D" unicode="m" horiz-adv-x="2416" 
d="M235 0v1536h173v-236h16q46 119 153.5 187.5t258.5 68.5q159 0 261.5 -74.5t153.5 -204.5h13q52 128 169.5 203.5t285.5 75.5q214 0 338 -134.5t124 -392.5v-1029h-178v1029q0 182 -93 273t-245 91q-176 0 -271 -108t-95 -274v-1011h-182v1045q0 156 -87 252t-245 96
q-106 0 -190.5 -52t-133 -144.5t-48.5 -212.5v-984h-178z" />
    <glyph glyph-name="uni006E" unicode="n" horiz-adv-x="1632" 
d="M413 960v-960h-178v1536h173v-241h16q54 118 168.5 189.5t283.5 71.5q155 0 272.5 -64.5t183 -189.5t65.5 -307v-995h-178v984q0 189 -105.5 299t-282.5 110q-121 0 -215 -52t-148.5 -149.5t-54.5 -231.5z" />
    <glyph glyph-name="uni006F" unicode="o" horiz-adv-x="1664" 
d="M832 -32q-199 0 -351.5 101t-238.5 279.5t-86 412.5q0 236 86 415.5t238.5 280t351.5 100.5t351 -101t238.5 -280t86.5 -415q0 -234 -86 -412.5t-238.5 -279.5t-351.5 -101zM832 131q160 0 271 86t168.5 229t57.5 315t-57.5 316t-168.5 231t-271 87q-159 0 -270.5 -87
t-169 -231t-57.5 -316t57.5 -315t168.5 -229t271 -86z" />
    <glyph glyph-name="uni0070" unicode="p" horiz-adv-x="1689" 
d="M235 -576v2112h173v-293h21q32 69 88 141.5t148.5 122.5t233.5 50q190 0 332.5 -99.5t222 -278t79.5 -415.5q0 -238 -79.5 -417t-222 -279t-330.5 -100q-139 0 -232.5 50t-151 123.5t-88.5 143.5h-16v-861h-178zM411 767q0 -186 55.5 -329.5t160 -225t253.5 -81.5
q153 0 258.5 84.5t161 228.5t55.5 323q0 177 -54.5 319t-160.5 225.5t-260 83.5q-150 0 -255 -80.5t-159.5 -222t-54.5 -325.5z" />
    <glyph glyph-name="uni0071" unicode="q" horiz-adv-x="1689" 
d="M1276 -576v861h-16q-31 -70 -88 -143.5t-151 -123.5t-233 -50q-188 0 -330.5 100t-222 279t-79.5 417q0 237 79.5 415.5t222.5 278t333 99.5q141 0 233.5 -50t148.5 -122.5t87 -141.5h21v293h174v-2112h-179zM809 131q149 0 254 81.5t160.5 225t55.5 329.5
q0 184 -55 325.5t-159.5 222t-255.5 80.5q-154 0 -260 -83.5t-160 -225.5t-54 -319q0 -179 55 -323t161 -228.5t258 -84.5z" />
    <glyph glyph-name="uni0072" unicode="r" horiz-adv-x="1004" 
d="M235 0v1536h173v-236h13q46 116 160.5 187.5t259.5 71.5q22 0 49 -1t45 -2v-181q-12 2 -42 6t-65 4q-120 0 -213.5 -50.5t-147.5 -139.5t-54 -203v-992h-178z" />
    <glyph glyph-name="uni0073" unicode="s" horiz-adv-x="1444" 
d="M1267 1199l-163 -46q-24 69 -68 125t-114.5 89t-174.5 33q-156 0 -256 -74t-100 -191q0 -99 68.5 -160.5t211.5 -97.5l232 -57q193 -47 289.5 -149t96.5 -256q0 -130 -72 -231t-200.5 -158.5t-297.5 -57.5q-225 0 -371 101.5t-187 293.5l171 42q33 -137 129.5 -207
t254.5 -70q177 0 283 79.5t106 199.5q0 93 -62 156.5t-188 93.5l-251 60q-200 48 -296 152t-96 258q0 127 69 223.5t190 151.5t276 55q211 0 337.5 -95.5t182.5 -262.5z" />
    <glyph glyph-name="uni0074" unicode="t" horiz-adv-x="1009" 
d="M840 1536v-155h-733v155h733zM336 1904h179v-1503q0 -96 33 -150.5t86 -77t113 -22.5q35 0 60 4.5t44 9.5l38 -161q-26 -10 -64 -18.5t-94 -8.5q-98 0 -188.5 43t-148.5 128t-58 211v1545z" />
    <glyph glyph-name="uni0075" unicode="u" horiz-adv-x="1624" 
d="M1211 587v949h178v-1536h-178v255h-14q-54 -118 -171 -196.5t-286 -78.5q-147 0 -261 64.5t-179 189.5t-65 307v995h178v-984q0 -180 106 -289.5t272 -109.5q104 0 200 50t158 146.5t62 237.5z" />
    <glyph glyph-name="uni0076" unicode="v" horiz-adv-x="1536" 
d="M1424 1536l-561 -1536h-190l-561 1536h193l456 -1301h14l456 1301h193z" />
    <glyph glyph-name="uni0077" unicode="w" horiz-adv-x="2267" 
d="M576 0l-464 1536h188l364 -1267h13l363 1267h189l360 -1264h14l364 1264h188l-464 -1536h-184l-364 1259h-19l-364 -1259h-184z" />
    <glyph glyph-name="uni0078" unicode="x" horiz-adv-x="1483" 
d="M345 1536l396 -655l396 655h207l-494 -768l494 -768h-207l-396 634l-396 -634h-206l488 768l-488 768h206z" />
    <glyph glyph-name="uni0079" unicode="y" horiz-adv-x="1536" 
d="M359 -576q-53 0 -99 10t-73 22l48 157q91 -28 162 -20.5t126 64t98 172.5l56 156l-565 1551h193l456 -1301h14l456 1301h193l-650 -1779q-41 -111 -101 -185.5t-138.5 -111t-175.5 -36.5z" />
    <glyph glyph-name="uni007A" unicode="z" horiz-adv-x="1493" 
d="M187 0v141l888 1214v13h-850v168h1079v-147l-872 -1208v-13h904v-168h-1149z" />
    <glyph glyph-name="uni007B" unicode="{" horiz-adv-x="976" 
d="M131 851v104q169 0 233.5 67t64.5 234v388q0 128 25 222.5t80 156t144.5 91.5t218.5 30v-152q-112 0 -178.5 -36.5t-95 -113.5t-28.5 -198v-441q0 -85 -20 -150.5t-71 -110.5t-141.5 -68t-231.5 -23zM897 -416q-129 0 -218.5 30t-144.5 91.5t-80 156t-25 222.5v388
q0 167 -64.5 234t-233.5 67v104q141 0 231.5 -23t141.5 -68t71 -110.5t20 -150.5v-441q0 -121 28.5 -197.5t95 -113.5t178.5 -37v-152zM131 773v182h229v-182h-229z" />
    <glyph glyph-name="uni007C" unicode="|" horiz-adv-x="869" 
d="M512 2708v-3368h-155v3368h155z" />
    <glyph glyph-name="uni007D" unicode="}" horiz-adv-x="976" 
d="M845 877v-104q-169 0 -233.5 -67t-64.5 -234v-388q0 -128 -25 -222.5t-80 -156t-144.5 -91.5t-218.5 -30v152q112 0 178.5 37t95 113.5t28.5 197.5v441q0 85 20 150.5t71 110.5t141.5 68t231.5 23zM79 2144q129 0 218.5 -30t144.5 -91.5t80 -156t25 -222.5v-388
q0 -167 64.5 -234t233.5 -67v-104q-141 0 -231.5 23t-141.5 68t-71 110.5t-20 150.5v441q0 121 -28.5 198t-95 113.5t-178.5 36.5v152zM845 955v-182h-229v182h229z" />
    <glyph glyph-name="uni007E" unicode="~" horiz-adv-x="1835" 
d="M243 629q2 138 56.5 226t141 130.5t186.5 42.5q102 0 183 -43t174 -120q69 -56 117.5 -83t107.5 -27q93 -1 152 61t66 173l165 -5q-5 -137 -59.5 -224t-139.5 -129t-181 -42q-97 1 -175 42.5t-172 117.5q-69 57 -120 85t-116 29q-93 0 -155.5 -58.5t-65.5 -177.5z" />
    <glyph glyph-name="uni00A0" unicode="&#xa0;" horiz-adv-x="792" 
 />
    <glyph glyph-name="uni00A1" unicode="&#xa1;" horiz-adv-x="768" 
d="M485 -520h-202l13 1461h176zM384 1543q59 0 101.5 -42.5t42.5 -101.5q0 -60 -42.5 -102t-101.5 -42t-101.5 42t-42.5 102q0 40 19.5 72.5t52.5 52t72 19.5z" />
    <glyph glyph-name="uni00A2" unicode="&#xa2;" horiz-adv-x="1567" 
d="M758 0v2048h131v-2048h-131zM835 229q-206 0 -358.5 103t-236.5 282.5t-84 408.5q0 231 85.5 410.5t237.5 282.5t353 103q154 0 279 -60t206.5 -167.5t102.5 -250.5h-180q-28 131 -134.5 223t-270.5 92q-147 0 -260 -79.5t-176.5 -221t-63.5 -327.5q0 -187 62 -330
t174.5 -224.5t263.5 -81.5q102 0 186.5 38.5t142 110t77.5 168.5h180q-20 -139 -98.5 -247t-203 -170.5t-284.5 -62.5z" />
    <glyph glyph-name="uni00A3" unicode="&#xa3;" horiz-adv-x="1776" 
d="M1517 0h-1320v168h1320v-168zM1101 815h-909v173h909v-173zM595 1455l30 -948q6 -139 -31.5 -246t-134.5 -150l-174 57q65 0 101 55t49.5 134t11.5 150l-28 948q-7 201 73.5 339.5t215.5 210t292 71.5q134 0 244.5 -47.5t186.5 -129t107 -184.5t5 -212l-176 48
q17 107 -30.5 187.5t-135.5 125t-193 44.5q-111 0 -205.5 -51.5t-152 -152.5t-55.5 -249z" />
    <glyph glyph-name="uni00A4" unicode="&#xa4;" horiz-adv-x="1997" 
d="M993 -28q-169 0 -315.5 65.5t-258 183.5t-173.5 275t-62 340t62 339.5t173.5 273.5t258 182t315.5 65q170 0 317 -65t258.5 -182t174 -273.5t62.5 -339.5t-62.5 -340t-174 -275t-258.5 -183.5t-317 -65.5zM993 140q133 0 249.5 54t203.5 149.5t136.5 222t49.5 270.5
q0 194 -85.5 351.5t-230.5 250.5t-323 93t-323.5 -93t-231.5 -250.5t-86 -351.5q0 -193 86 -351t231.5 -251.5t323.5 -93.5zM1570 1308l-121 127l264 272l124 -127zM1713 -13l-264 272l121 124l267 -269zM278 -13l-121 127l264 269l124 -124zM421 1308l-264 272l121 127
l267 -272z" />
    <glyph glyph-name="uni00A5" unicode="&#xa5;" horiz-adv-x="1520" 
d="M255 2048l561 -1148l-152 -53l-617 1201h208zM704 900l561 1148h208l-617 -1201zM853 1035v-1035h-186v1035h186zM1312 985v-141h-1104v141h1104zM1312 640v-141h-1104v141h1104z" />
    <glyph glyph-name="uni00A6" unicode="&#xa6;" horiz-adv-x="674" 
d="M253 545h168v-929h-168v929zM421 2048v-925h-168v925h168z" />
    <glyph glyph-name="uni00A7" unicode="&#xa7;" horiz-adv-x="1532" 
d="M1245 1588h-173q-3 138 -79.5 231.5t-228.5 93.5q-98 0 -165 -38.5t-101 -99t-34 -127.5q0 -73 37 -129.5t94 -100.5t117 -79l315 -186q53 -31 113.5 -72t113.5 -95.5t87 -125.5t34 -163q0 -79 -41.5 -151.5t-110.5 -123.5t-152 -67v-4q102 -78 143 -160.5t41 -179.5
q0 -142 -69 -236.5t-183 -142.5t-248 -48q-152 0 -271 60.5t-187.5 171t-71.5 261.5h176q4 -155 102.5 -242.5t251.5 -87.5q133 0 229.5 67.5t96.5 196.5q0 72 -31.5 124.5t-89 96t-135.5 88.5l-316 183q-69 40 -132 85t-112.5 100t-78.5 122.5t-29 152.5q0 78 38 153
t106 128t158 67v8q-77 66 -122.5 145.5t-45.5 183.5q0 122 61 218.5t167.5 153t244.5 56.5q146 0 253 -62.5t166.5 -172.5t61.5 -253zM1207 697q0 72 -39.5 129t-100.5 103t-126 84l-330 194q-72 20 -137.5 -8t-107 -90t-41.5 -144q0 -105 73.5 -177t198.5 -145l308 -179
q62 -19 132 6t120 84t50 143z" />
    <glyph glyph-name="uni00A8" unicode="&#xa8;" horiz-adv-x="1728" 
d="M608 1800q-51 0 -89.5 38.5t-38.5 89.5q0 55 38.5 91.5t89.5 36.5q55 0 91.5 -36.5t36.5 -91.5q0 -51 -36.5 -89.5t-91.5 -38.5zM1120 1800q-51 0 -89.5 38.5t-38.5 89.5q0 55 38.5 91.5t89.5 36.5q55 0 91.5 -36.5t36.5 -91.5q0 -51 -36.5 -89.5t-91.5 -38.5z" />
    <glyph glyph-name="uni00A9" unicode="&#xa9;" horiz-adv-x="2576" 
d="M710 1024q0 164 80 299t215 215t299 80q134 0 247 -55t189.5 -150.5t102.5 -217.5h-186q-30 109 -128 178t-225 69q-115 0 -210 -56.5t-151.5 -151t-56.5 -210.5q0 -115 56.5 -210t151.5 -151.5t210 -56.5q127 0 218 69t122 178h185q-25 -122 -98 -217.5t-183 -150.5
t-244 -55q-164 0 -299 80t-215 215t-80 299zM1288 -32q-218 0 -409.5 82t-337 227.5t-228 336.5t-81.5 410t83.5 410t227.5 336.5t336 227.5t409 82q219 0 410.5 -82t336 -227.5t226.5 -336.5t83 -410t-81 -410t-227 -336.5t-337 -227.5t-411 -82zM1288 144q183 0 343 68.5
t280.5 189t189 280.5t67.5 341q-1 183 -69.5 343t-189 280.5t-279.5 189t-342 68.5q-182 0 -341 -68.5t-279.5 -189.5t-189.5 -280.5t-70 -342.5q-1 -181 67.5 -340.5t189.5 -280t281 -189.5t342 -69z" />
    <glyph glyph-name="uni00AA" unicode="&#xaa;" horiz-adv-x="1181" 
d="M791 1184v468q0 113 -46.5 168t-143.5 55q-105 0 -164.5 -45t-62.5 -132l-179 15q2 141 112.5 230t293.5 89q174 0 272.5 -94.5t99.5 -285.5v-432q-1 -68 7 -128.5t27 -118.5h-185q-15 48 -23 103t-8 108zM835 1572v-127h-212q-136 0 -200.5 -51t-64.5 -131
q0 -73 45.5 -114.5t137.5 -41.5q57 -1 115 21.5t102.5 58.5t61.5 76l24 -120q-54 -77 -136 -134t-207 -57q-155 0 -241.5 84t-86.5 221q1 152 113.5 233.5t336.5 81.5h212z" />
    <glyph glyph-name="uni00AB" unicode="&#xab;" horiz-adv-x="1507" 
d="M771 220h-164l-404 600v20h173zM771 1448l-395 -620h-173v20l404 600h164zM1283 220h-164l-404 600v20h173zM1283 1448l-395 -620h-173v20l404 600h164z" />
    <glyph glyph-name="uni00AC" unicode="&#xac;" horiz-adv-x="1482" 
d="M1312 1108v-179h-1137v179h1137zM1312 1027v-511h-205v511h205z" />
    <glyph glyph-name="uni00AD" unicode="&#xad;" horiz-adv-x="1276" 
d="M1064 962v-168h-852v168h852z" />
    <glyph glyph-name="uni00AE" unicode="&#xae;" horiz-adv-x="1888" 
d="M673 916v738h354q56 0 108.5 -26.5t87 -78t34.5 -126.5t-35.5 -129.5t-90 -83.5t-112.5 -29h-274v101h240q51 0 91.5 36.5t40.5 104.5q0 70 -40.5 100t-88.5 30h-186v-637h-129zM1103 1259l184 -343h-144l-179 343h139zM944 476q-166 0 -311 62t-255 172t-172 255
t-62 311t62 311t172 255t255 172t311 62t311 -62t255 -172t172 -255t62 -311t-62 -311t-172 -255t-255 -172t-311 -62zM944 625q180 0 327.5 88t235.5 235.5t88 327.5t-88 327.5t-235.5 235.5t-327.5 88t-327.5 -88t-235.5 -235.5t-88 -327.5t88 -327.5t235.5 -235.5
t327.5 -88z" />
    <glyph glyph-name="uni00AF" unicode="&#xaf;" horiz-adv-x="1117" 
d="M977 2003v-155h-837v155h837z" />
    <glyph glyph-name="uni00B0" unicode="&#xb0;" horiz-adv-x="1280" 
d="M640 1177q-123 0 -224 60t-161 161.5t-60 224.5t60 224t161 161t224 60t224 -60t161 -161t60 -224t-60 -224.5t-161 -161.5t-224 -60zM640 1332q81 0 146.5 39t105 105t39.5 147q0 80 -39.5 146t-105 105t-146.5 39q-80 0 -146 -39t-105.5 -105t-39.5 -146
q0 -81 39.5 -147t105.5 -105t146 -39z" />
    <glyph glyph-name="uni00B1" unicode="&#xb1;" horiz-adv-x="1835" 
d="M295 128v171h1245v-171h-1245zM295 923v170h1245v-170h-1245zM832 480v1056h171v-1056h-171z" />
    <glyph glyph-name="uni00B2" unicode="&#xb2;" horiz-adv-x="1176" 
d="M149 1024v120l459 431q78 74 128 129.5t74.5 105.5t24.5 106q0 98 -75 158.5t-187 60.5q-118 0 -190 -65.5t-72 -165.5h-160q0 161 119.5 262.5t305.5 101.5q123 0 217.5 -46t148 -125t53.5 -178q0 -78 -30.5 -145.5t-97.5 -143t-176 -177.5l-303 -285v-7h653v-137h-892z
" />
    <glyph glyph-name="uni00B3" unicode="&#xb3;" horiz-adv-x="1193" 
d="M597 1008q-131 0 -234.5 44.5t-164.5 123t-62 180.5h168q2 -93 86 -150.5t207 -57.5q130 0 213 63t83 158q0 97 -90 159.5t-238 62.5h-78v126h78q123 0 206.5 57t83.5 154q0 89 -71 148t-185 59q-113 0 -192.5 -58t-82.5 -154h-159q2 102 59.5 180t155 121.5t219.5 43.5
q123 0 217.5 -43t147.5 -118.5t53 -170.5q0 -108 -72 -179.5t-181 -92.5v-8q142 -23 220.5 -104t78.5 -193q0 -100 -60 -179.5t-165 -125.5t-241 -46z" />
    <glyph glyph-name="uni00B4" unicode="&#xb4;" horiz-adv-x="1400" 
d="M594 1749l256 454h211l-307 -454h-160z" />
    <glyph glyph-name="uni00B5" unicode="&#xb5;" horiz-adv-x="1697" 
d="M232 -583v2119h179v-949q0 -128 55 -226t154 -153t229 -55q131 0 230 55.5t154 153t55 225.5v949h179v-1536h-179v233h-11q-59 -120 -174 -186.5t-254 -66.5q-138 0 -253 66.5t-175 186.5h-10v-816h-179z" />
    <glyph glyph-name="uni00B6" unicode="&#xb6;" horiz-adv-x="1645" 
d="M1373 1880h-416v-1120h-116q-218 0 -369 83.5t-229 229t-78 331.5q0 184 78 329.5t229 230t369 84.5h532v-168zM1187 0v2048h186v-2048h-186z" />
    <glyph glyph-name="uni00B7" unicode="&#xb7;" horiz-adv-x="755" 
d="M377 752q-59 0 -101.5 42.5t-42.5 101.5q0 60 42.5 102t101.5 42q60 0 102 -42t42 -102q0 -39 -19.5 -72t-52 -52.5t-72.5 -19.5z" />
    <glyph glyph-name="uni00B8" unicode="&#xb8;" horiz-adv-x="693" 
d="M274 8h152l-15 -80q86 -13 146.5 -69.5t61.5 -165.5q-1 -121 -94.5 -192t-275.5 -73l-6 125q99 2 156 33.5t57 101.5q0 75 -52.5 106t-165.5 37z" />
    <glyph glyph-name="uni00B9" unicode="&#xb9;" horiz-adv-x="844" 
d="M433 1024v1060h-10l-306 -203v166l308 205h168v-1228h-160z" />
    <glyph glyph-name="uni00BA" unicode="&#xba;" horiz-adv-x="1209" 
d="M144 1437v110q0 145 55.5 254t159.5 170t246 61q216 0 338 -133.5t122 -351.5v-110q0 -146 -54.5 -254.5t-157.5 -168.5t-246 -61q-216 0 -339.5 132.5t-123.5 351.5zM324 1547v-110q0 -148 72.5 -239t210.5 -91q136 -1 207 90t71 240v110q0 145 -71 237t-209 92
q-136 0 -208.5 -91.5t-72.5 -237.5z" />
    <glyph glyph-name="uni00BB" unicode="&#xbb;" horiz-adv-x="1513" 
d="M211 220l394 620h174v-20l-404 -600h-164zM211 1448h164l404 -600v-20h-174zM730 220l394 620h174v-20l-404 -600h-164zM730 1448h164l404 -600v-20h-174z" />
    <glyph glyph-name="uni00BC" unicode="&#xbc;" horiz-adv-x="2395" 
d="M361 0l1407 2048h177l-1406 -2048h-178zM376 960v920h-11l-274 -182v167l277 183h168v-1088h-160zM1414 212v127l536 749h108v-185h-70l-403 -555v-4h715v-132h-886zM1993 0v253l3 55v780h150v-1088h-153z" />
    <glyph glyph-name="uni00BD" unicode="&#xbd;" horiz-adv-x="2545" 
d="M361 0l1407 2048h177l-1406 -2048h-178zM376 960v920h-11l-274 -182v167l277 183h168v-1088h-160zM1611 0v117l417 376q108 99 154 161t46 130q0 85 -66.5 138t-165.5 53q-101 0 -167 -56t-66 -143h-155q0 144 109 236t282 92q171 0 276.5 -91t105.5 -226
q0 -68 -26.5 -128t-87 -127t-162.5 -157l-261 -236v-7h584v-132h-817z" />
    <glyph glyph-name="uni00BE" unicode="&#xbe;" horiz-adv-x="2626" 
d="M592 0l1407 2048h177l-1406 -2048h-178zM1644 212v127l536 749h108v-185h-70l-403 -555v-4h715v-132h-886zM2223 0v253l3 55v780h150v-1088h-153zM541 944q-120 0 -215.5 41t-150.5 112.5t-55 163.5h163q0 -80 74 -131t184 -51q113 0 185.5 55t72.5 135q0 84 -80 136
t-207 52h-71v118h71q110 0 183.5 50t73.5 131q0 76 -63.5 127.5t-164.5 51.5t-169.5 -51.5t-68.5 -131.5h-158q2 91 54 161t141 110.5t201 40.5q113 0 200 -39t136.5 -106t49.5 -152q0 -93 -64.5 -157t-170.5 -83v-7q130 -20 201.5 -90.5t71.5 -170.5q0 -90 -54 -161.5
t-149.5 -112.5t-220.5 -41z" />
    <glyph glyph-name="uni00BF" unicode="&#xbf;" horiz-adv-x="1401" 
d="M857 951v-55q0 -157 -34 -256.5t-100.5 -167.5t-166.5 -132q-72 -47 -123.5 -101t-78 -117.5t-26.5 -141.5q0 -108 51 -188.5t136.5 -125.5t191.5 -45q100 0 186 43.5t141 128t59 208.5h190q-5 -164 -82.5 -285.5t-206 -188t-287.5 -66.5q-166 0 -292.5 68.5t-197 187.5
t-70.5 271q0 102 31.5 185t95 153t158.5 131q91 60 144 119t76 134.5t24 185.5v55h181zM761 1552q60 0 102 -42.5t42 -101.5t-42 -101.5t-102 -42.5q-59 0 -101.5 42.5t-42.5 101.5q0 40 19.5 72.5t52.5 52t72 19.5z" />
    <glyph glyph-name="uni00C0" unicode="&#xc0;" horiz-adv-x="1848" 
d="M275 0h-196l745 2048h200l745 -2048h-196l-642 1805h-14zM416 785h1016v-168h-1016v168zM848 2261l-307 454h211l256 -454h-160z" />
    <glyph glyph-name="uni00C1" unicode="&#xc1;" horiz-adv-x="1848" 
d="M275 0h-196l745 2048h200l745 -2048h-196l-642 1805h-14zM416 785h1016v-168h-1016v168zM841 2261l256 454h211l-307 -454h-160z" />
    <glyph glyph-name="uni00C2" unicode="&#xc2;" horiz-adv-x="1848" 
d="M275 0h-196l745 2048h200l745 -2048h-196l-642 1805h-14zM416 785h1016v-168h-1016v168zM1163 2224l-239 289l-239 -289h-174v13l338 403h150l338 -403v-13h-174z" />
    <glyph glyph-name="uni00C3" unicode="&#xc3;" horiz-adv-x="1848" 
d="M275 0h-196l745 2048h200l745 -2048h-196l-642 1805h-14zM416 785h1016v-168h-1016v168zM587 2283l-144 8q5 133 88 217.5t203 84.5q61 0 107 -21t86.5 -48.5t83 -49t96.5 -21.5q61 0 106.5 44t51.5 110l141 -16q-7 -135 -90.5 -215t-200.5 -80q-67 0 -112.5 21.5
t-82 48.5t-78 48.5t-100.5 21.5q-64 0 -107.5 -44.5t-47.5 -108.5z" />
    <glyph glyph-name="uni00C4" unicode="&#xc4;" horiz-adv-x="1848" 
d="M275 0h-196l745 2048h200l745 -2048h-196l-642 1805h-14zM416 785h1016v-168h-1016v168zM668 2312q-51 0 -89.5 38.5t-38.5 89.5q0 55 38.5 91.5t89.5 36.5q55 0 91.5 -36.5t36.5 -91.5q0 -51 -36.5 -89.5t-91.5 -38.5zM1180 2312q-51 0 -89.5 38.5t-38.5 89.5
q0 55 38.5 91.5t89.5 36.5q55 0 91.5 -36.5t36.5 -91.5q0 -51 -36.5 -89.5t-91.5 -38.5z" />
    <glyph glyph-name="uni00C5" unicode="&#xc5;" horiz-adv-x="1848" 
d="M275 0h-196l745 2048h200l745 -2048h-196l-642 1805h-14zM416 785h1016v-168h-1016v168zM924 2175q-112 0 -190.5 78.5t-78.5 190.5q0 75 36 136t97.5 97t135.5 36q75 0 136 -36t97 -97t36 -136q0 -74 -36 -135.5t-97 -97.5t-136 -36zM924 2292q64 0 107.5 44.5
t43.5 107.5q0 64 -43.5 108t-107.5 44t-107.5 -44.5t-43.5 -107.5q0 -64 43.5 -108t107.5 -44z" />
    <glyph glyph-name="uni00C6" unicode="&#xc6;" horiz-adv-x="2759" 
d="M79 0l1009 2048h1460v-168h-1001v-771h938v-168h-938v-773h1021v-168h-1208v1880h-165l-911 -1880h-205zM503 617v168h952v-168h-952z" />
    <glyph glyph-name="uni00C7" unicode="&#xc7;" horiz-adv-x="2044" 
d="M1876 1408h-188q-21 105 -75.5 194.5t-136.5 156.5t-186 104t-225 37q-194 0 -353.5 -101t-255 -296.5t-95.5 -478.5q0 -285 95.5 -480t255 -295.5t353.5 -100.5q121 0 225 37t186 103.5t136.5 156.5t75.5 195h188q-25 -141 -93.5 -262.5t-174 -212.5t-242.5 -142
t-301 -51q-258 0 -458 129.5t-313.5 365.5t-113.5 557t113.5 557t313.5 365.5t458 129.5q164 0 301 -50.5t242.5 -142t174 -212.5t93.5 -263zM985 -3h152l-15 -80q86 -13 146.5 -69.5t61.5 -165.5q-1 -121 -94.5 -192t-275.5 -73l-6 125q99 2 156 33.5t57 101.5
q0 75 -52.5 106t-165.5 37z" />
    <glyph glyph-name="uni00C8" unicode="&#xc8;" horiz-adv-x="1671" 
d="M272 0v2048h1188v-168h-1001v-771h938v-168h-938v-773h1021v-168h-1208zM790 2261l-307 454h211l256 -454h-160z" />
    <glyph glyph-name="uni00C9" unicode="&#xc9;" horiz-adv-x="1671" 
d="M272 0v2048h1188v-168h-1001v-771h938v-168h-938v-773h1021v-168h-1208zM783 2261l256 454h211l-307 -454h-160z" />
    <glyph glyph-name="uni00CA" unicode="&#xca;" horiz-adv-x="1671" 
d="M272 0v2048h1188v-168h-1001v-771h938v-168h-938v-773h1021v-168h-1208zM1106 2224l-239 289l-239 -289h-174v13l338 403h150l338 -403v-13h-174z" />
    <glyph glyph-name="uni00CB" unicode="&#xcb;" horiz-adv-x="1671" 
d="M272 0v2048h1188v-168h-1001v-771h938v-168h-938v-773h1021v-168h-1208zM611 2312q-51 0 -89.5 38.5t-38.5 89.5q0 54 38.5 91t89.5 37q55 0 91.5 -37t36.5 -91q0 -51 -36.5 -89.5t-91.5 -38.5zM1123 2312q-51 0 -89.5 38.5t-38.5 89.5q0 54 38.5 91t89.5 37
q55 0 91.5 -37t36.5 -91q0 -51 -36.5 -89.5t-91.5 -38.5z" />
    <glyph glyph-name="uni00CC" unicode="&#xcc;" horiz-adv-x="731" 
d="M459 2048v-2048h-187v2048h187zM289 2261l-307 454h211l256 -454h-160z" />
    <glyph glyph-name="uni00CD" unicode="&#xcd;" horiz-adv-x="731" 
d="M459 2048v-2048h-187v2048h187zM282 2261l256 454h211l-307 -454h-160z" />
    <glyph glyph-name="uni00CE" unicode="&#xce;" horiz-adv-x="731" 
d="M459 2048v-2048h-187v2048h187zM604 2224l-239 289l-239 -289h-174v13l338 403h150l338 -403v-13h-174z" />
    <glyph glyph-name="uni00CF" unicode="&#xcf;" horiz-adv-x="731" 
d="M459 2048v-2048h-187v2048h187zM109 2312q-50 0 -89 38.5t-39 89.5q0 55 39 91.5t89 36.5q55 0 91.5 -36.5t36.5 -91.5q0 -51 -36.5 -89.5t-91.5 -38.5zM621 2312q-50 0 -89 38.5t-39 89.5q0 55 39 91.5t89 36.5q55 0 91.5 -36.5t36.5 -91.5q0 -51 -36.5 -89.5
t-91.5 -38.5z" />
    <glyph glyph-name="uni00D0" unicode="&#xd0;" horiz-adv-x="2020" 
d="M872 0h-496v168h485q264 0 442 104t267 297t89 460q-1 265 -87.5 456t-256 293t-418.5 102h-529v168h540q293 0 501.5 -122t319.5 -350t111 -547q0 -322 -113.5 -552.5t-330 -353.5t-524.5 -123zM459 2048v-2048h-187v2048h187zM-55 979v144h840v-144h-840z" />
    <glyph glyph-name="uni00D1" unicode="&#xd1;" horiz-adv-x="2139" 
d="M1867 2048v-2048h-182l-1210 1715h-16v-1715h-187v2048h181l1214 -1717h16v1717h184zM732 2260l-144 8q5 133 88 218t203 85q61 0 107 -21.5t86.5 -49t83 -48.5t96.5 -21q61 0 106.5 44t51.5 109l141 -16q-7 -134 -90.5 -214.5t-200.5 -80.5q-67 0 -112.5 21.5t-82 49
t-78 48.5t-100.5 21q-64 0 -107.5 -44t-47.5 -109z" />
    <glyph glyph-name="uni00D2" unicode="&#xd2;" horiz-adv-x="2131" 
d="M1951 1024q0 -320 -114 -556.5t-313.5 -366t-458.5 -129.5t-458.5 129.5t-313 366t-113.5 556.5t113.5 556.5t313.5 366t458 129.5q259 0 458.5 -129.5t313.5 -366t114 -556.5zM1769 1024q0 275 -92 471.5t-251 300.5t-361 104q-201 0 -360 -104t-251.5 -300t-92.5 -472
q0 -275 92 -471t251 -300.5t361 -104.5t361.5 104t251.5 300.5t91 471.5zM989 2261l-307 454h211l256 -454h-160z" />
    <glyph glyph-name="uni00D3" unicode="&#xd3;" horiz-adv-x="2131" 
d="M1951 1024q0 -320 -114 -556.5t-313.5 -366t-458.5 -129.5t-458.5 129.5t-313 366t-113.5 556.5t113.5 556.5t313.5 366t458 129.5q259 0 458.5 -129.5t313.5 -366t114 -556.5zM1769 1024q0 275 -92 471.5t-251 300.5t-361 104q-201 0 -360 -104t-251.5 -300t-92.5 -472
q0 -275 92 -471t251 -300.5t361 -104.5t361.5 104t251.5 300.5t91 471.5zM982 2261l256 454h211l-307 -454h-160z" />
    <glyph glyph-name="uni00D4" unicode="&#xd4;" horiz-adv-x="2131" 
d="M1951 1024q0 -320 -114 -556.5t-313.5 -366t-458.5 -129.5t-458.5 129.5t-313 366t-113.5 556.5t113.5 556.5t313.5 366t458 129.5q259 0 458.5 -129.5t313.5 -366t114 -556.5zM1769 1024q0 275 -92 471.5t-251 300.5t-361 104q-201 0 -360 -104t-251.5 -300t-92.5 -472
q0 -275 92 -471t251 -300.5t361 -104.5t361.5 104t251.5 300.5t91 471.5zM1304 2224l-239 289l-239 -289h-174v13l338 403h150l338 -403v-13h-174z" />
    <glyph glyph-name="uni00D5" unicode="&#xd5;" horiz-adv-x="2131" 
d="M1951 1024q0 -320 -114 -556.5t-313.5 -366t-458.5 -129.5t-458.5 129.5t-313 366t-113.5 556.5t113.5 556.5t313.5 366t458 129.5q259 0 458.5 -129.5t313.5 -366t114 -556.5zM1769 1024q0 275 -92 471.5t-251 300.5t-361 104q-201 0 -360 -104t-251.5 -300t-92.5 -472
q0 -275 92 -471t251 -300.5t361 -104.5t361.5 104t251.5 300.5t91 471.5zM728 2283l-144 8q5 133 88 217.5t203 84.5q61 0 107 -21t86.5 -48.5t83 -49t96.5 -21.5q61 0 106.5 44t51.5 110l141 -16q-7 -135 -90.5 -215t-200.5 -80q-67 0 -112.5 21.5t-82 48.5t-78 48.5
t-100.5 21.5q-64 0 -107.5 -44.5t-47.5 -108.5z" />
    <glyph glyph-name="uni00D6" unicode="&#xd6;" horiz-adv-x="2131" 
d="M1951 1024q0 -320 -114 -556.5t-313.5 -366t-458.5 -129.5t-458.5 129.5t-313 366t-113.5 556.5t113.5 556.5t313.5 366t458 129.5q259 0 458.5 -129.5t313.5 -366t114 -556.5zM1769 1024q0 275 -92 471.5t-251 300.5t-361 104q-201 0 -360 -104t-251.5 -300t-92.5 -472
q0 -275 92 -471t251 -300.5t361 -104.5t361.5 104t251.5 300.5t91 471.5zM809 2312q-50 0 -89 38.5t-39 89.5q0 55 39 91.5t89 36.5q55 0 91.5 -36.5t36.5 -91.5q0 -51 -36.5 -89.5t-91.5 -38.5zM1321 2312q-50 0 -89 38.5t-39 89.5q0 55 39 91.5t89 36.5q55 0 91.5 -36.5
t36.5 -91.5q0 -51 -36.5 -89.5t-91.5 -38.5z" />
    <glyph glyph-name="uni00D7" unicode="&#xd7;" horiz-adv-x="1835" 
d="M1423 178l-1128 1128l117 116l1128 -1128zM412 178l-117 116l1128 1128l117 -116z" />
    <glyph glyph-name="uni00D8" unicode="&#xd8;" horiz-adv-x="2131" 
d="M417 -72l-118 81l1409 2108l119 -81zM1951 1024q0 -320 -114 -556.5t-313.5 -366t-458.5 -129.5t-458.5 129.5t-313 366t-113.5 556.5t113.5 556.5t313.5 366t458 129.5q259 0 458.5 -129.5t313.5 -366t114 -556.5zM1769 1024q0 275 -92 471.5t-251 300.5t-361 104
q-201 0 -360 -104t-251.5 -300t-92.5 -472q0 -275 92 -471t251 -300.5t361 -104.5t361.5 104t251.5 300.5t91 471.5z" />
    <glyph glyph-name="uni00D9" unicode="&#xd9;" horiz-adv-x="2096" 
d="M1637 2048h187v-1356q0 -209 -98 -373.5t-272.5 -259t-405.5 -94.5q-230 0 -405 95t-273 259t-98 373v1356h187v-1343q0 -163 73 -290.5t205.5 -200.5t310.5 -73t311 73t205.5 200.5t72.5 290.5v1343zM972 2261l-307 454h211l256 -454h-160z" />
    <glyph glyph-name="uni00DA" unicode="&#xda;" horiz-adv-x="2096" 
d="M1637 2048h187v-1356q0 -209 -98 -373.5t-272.5 -259t-405.5 -94.5q-230 0 -405 95t-273 259t-98 373v1356h187v-1343q0 -163 73 -290.5t205.5 -200.5t310.5 -73t311 73t205.5 200.5t72.5 290.5v1343zM965 2261l256 454h211l-307 -454h-160z" />
    <glyph glyph-name="uni00DB" unicode="&#xdb;" horiz-adv-x="2096" 
d="M1637 2048h187v-1356q0 -209 -98 -373.5t-272.5 -259t-405.5 -94.5q-230 0 -405 95t-273 259t-98 373v1356h187v-1343q0 -163 73 -290.5t205.5 -200.5t310.5 -73t311 73t205.5 200.5t72.5 290.5v1343zM1287 2224l-239 289l-239 -289h-174v13l338 403h150l338 -403v-13
h-174z" />
    <glyph glyph-name="uni00DC" unicode="&#xdc;" horiz-adv-x="2096" 
d="M1637 2048h187v-1356q0 -209 -98 -373.5t-272.5 -259t-405.5 -94.5q-230 0 -405 95t-273 259t-98 373v1356h187v-1343q0 -163 73 -290.5t205.5 -200.5t310.5 -73t311 73t205.5 200.5t72.5 290.5v1343zM792 2312q-51 0 -89.5 38.5t-38.5 89.5q0 54 38.5 91t89.5 37
q55 0 91.5 -37t36.5 -91q0 -51 -36.5 -89.5t-91.5 -38.5zM1304 2312q-51 0 -89.5 38.5t-38.5 89.5q0 54 38.5 91t89.5 37q55 0 91.5 -37t36.5 -91q0 -51 -36.5 -89.5t-91.5 -38.5z" />
    <glyph glyph-name="uni00DD" unicode="&#xdd;" horiz-adv-x="1824" 
d="M80 2048h216l607 -972h18l607 972h216l-739 -1161v-887h-186v887zM829 2261l256 454h211l-307 -454h-160z" />
    <glyph glyph-name="uni00DE" unicode="&#xde;" horiz-adv-x="1738" 
d="M252 2048h185v-2048h-185v2048zM340 1601h525q207 0 352 -74.5t221.5 -202.5t76.5 -291t-76 -291.5t-221 -202.5t-353 -74h-525v168h525q151 0 256 46t160 135t55 215q0 127 -55.5 217.5t-160.5 138.5t-255 48h-525v168z" />
    <glyph glyph-name="uni00DF" unicode="&#xdf;" horiz-adv-x="1683" 
d="M272 0v1529q0 169 71.5 291.5t198.5 189t293 66.5q162 0 288.5 -63t198.5 -179t71 -274q0 -179 -93.5 -304.5t-250.5 -177.5v-16q209 -30 332.5 -163t123.5 -344q0 -162 -74 -287.5t-207.5 -196.5t-314.5 -71h-196v168h204q124 0 216 49t143 135.5t51 198.5
q0 182 -128.5 295.5t-347.5 113.5h-130v171h96q122 0 211 55.5t138 147.5t49 202q0 162 -102 267t-274 105q-172 1 -280 -104t-108 -280v-1524h-179z" />
    <glyph glyph-name="uni00E0" unicode="&#xe0;" horiz-adv-x="1567" 
d="M664 -35q-139 0 -254 54.5t-183 158t-68 251.5q0 114 43 192t122 128t187 79t238 45q129 16 218.5 28t136.5 38t47 84v36q0 157 -93.5 247.5t-268.5 90.5q-166 0 -270.5 -73t-146.5 -172l-169 61q52 126 144 201.5t206 109t231 33.5q88 0 183.5 -23t177.5 -79.5t133 -157
t51 -254.5v-1043h-178v243h-11q-32 -68 -95 -132t-158 -105t-223 -41zM688 128q142 0 246 63t160.5 167.5t56.5 230.5v222q-20 -19 -66.5 -34t-107 -26.5t-120.5 -19.5t-108 -14q-130 -16 -222 -50t-141 -93.5t-49 -152.5q0 -140 100 -216.5t251 -76.5zM724 1749l-307 454
h211l256 -454h-160z" />
    <glyph glyph-name="uni00E1" unicode="&#xe1;" horiz-adv-x="1567" 
d="M664 -35q-139 0 -254 54.5t-183 158t-68 251.5q0 114 43 192t122 128t187 79t238 45q129 16 218.5 28t136.5 38t47 84v36q0 157 -93.5 247.5t-268.5 90.5q-166 0 -270.5 -73t-146.5 -172l-169 61q52 126 144 201.5t206 109t231 33.5q88 0 183.5 -23t177.5 -79.5t133 -157
t51 -254.5v-1043h-178v243h-11q-32 -68 -95 -132t-158 -105t-223 -41zM688 128q142 0 246 63t160.5 167.5t56.5 230.5v222q-20 -19 -66.5 -34t-107 -26.5t-120.5 -19.5t-108 -14q-130 -16 -222 -50t-141 -93.5t-49 -152.5q0 -140 100 -216.5t251 -76.5zM717 1749l256 454
h211l-307 -454h-160z" />
    <glyph glyph-name="uni00E2" unicode="&#xe2;" horiz-adv-x="1567" 
d="M664 -35q-139 0 -254 54.5t-183 158t-68 251.5q0 114 43 192t122 128t187 79t238 45q129 16 218.5 28t136.5 38t47 84v36q0 157 -93.5 247.5t-268.5 90.5q-166 0 -270.5 -73t-146.5 -172l-169 61q52 126 144 201.5t206 109t231 33.5q88 0 183.5 -23t177.5 -79.5t133 -157
t51 -254.5v-1043h-178v243h-11q-32 -68 -95 -132t-158 -105t-223 -41zM688 128q142 0 246 63t160.5 167.5t56.5 230.5v222q-20 -19 -66.5 -34t-107 -26.5t-120.5 -19.5t-108 -14q-130 -16 -222 -50t-141 -93.5t-49 -152.5q0 -140 100 -216.5t251 -76.5zM1039 1712l-239 289
l-239 -289h-174v13l338 403h150l338 -403v-13h-174z" />
    <glyph glyph-name="uni00E3" unicode="&#xe3;" horiz-adv-x="1567" 
d="M664 -35q-139 0 -254 54.5t-183 158t-68 251.5q0 114 43 192t122 128t187 79t238 45q129 16 218.5 28t136.5 38t47 84v36q0 157 -93.5 247.5t-268.5 90.5q-166 0 -270.5 -73t-146.5 -172l-169 61q52 126 144 201.5t206 109t231 33.5q88 0 183.5 -23t177.5 -79.5t133 -157
t51 -254.5v-1043h-178v243h-11q-32 -68 -95 -132t-158 -105t-223 -41zM688 128q142 0 246 63t160.5 167.5t56.5 230.5v222q-20 -19 -66.5 -34t-107 -26.5t-120.5 -19.5t-108 -14q-130 -16 -222 -50t-141 -93.5t-49 -152.5q0 -140 100 -216.5t251 -76.5zM462 1748l-144 8
q5 133 88 218t203 85q61 0 107 -21.5t86.5 -49t83 -48.5t96.5 -21q61 0 106.5 44t51.5 109l141 -16q-7 -134 -90.5 -214.5t-200.5 -80.5q-67 0 -112.5 21.5t-82 49t-78 48.5t-100.5 21q-64 0 -107.5 -44t-47.5 -109z" />
    <glyph glyph-name="uni00E4" unicode="&#xe4;" horiz-adv-x="1567" 
d="M664 -35q-139 0 -254 54.5t-183 158t-68 251.5q0 114 43 192t122 128t187 79t238 45q129 16 218.5 28t136.5 38t47 84v36q0 157 -93.5 247.5t-268.5 90.5q-166 0 -270.5 -73t-146.5 -172l-169 61q52 126 144 201.5t206 109t231 33.5q88 0 183.5 -23t177.5 -79.5t133 -157
t51 -254.5v-1043h-178v243h-11q-32 -68 -95 -132t-158 -105t-223 -41zM688 128q142 0 246 63t160.5 167.5t56.5 230.5v222q-20 -19 -66.5 -34t-107 -26.5t-120.5 -19.5t-108 -14q-130 -16 -222 -50t-141 -93.5t-49 -152.5q0 -140 100 -216.5t251 -76.5zM544 1800
q-51 0 -89.5 38.5t-38.5 89.5q0 55 38.5 91.5t89.5 36.5q55 0 91.5 -36.5t36.5 -91.5q0 -51 -36.5 -89.5t-91.5 -38.5zM1056 1800q-51 0 -89.5 38.5t-38.5 89.5q0 55 38.5 91.5t89.5 36.5q55 0 91.5 -36.5t36.5 -91.5q0 -51 -36.5 -89.5t-91.5 -38.5z" />
    <glyph glyph-name="uni00E5" unicode="&#xe5;" horiz-adv-x="1567" 
d="M664 -35q-139 0 -254 54.5t-183 158t-68 251.5q0 114 43 192t122 128t187 79t238 45q129 16 218.5 28t136.5 38t47 84v36q0 157 -93.5 247.5t-268.5 90.5q-166 0 -270.5 -73t-146.5 -172l-169 61q52 126 144 201.5t206 109t231 33.5q88 0 183.5 -23t177.5 -79.5t133 -157
t51 -254.5v-1043h-178v243h-11q-32 -68 -95 -132t-158 -105t-223 -41zM688 128q142 0 246 63t160.5 167.5t56.5 230.5v222q-20 -19 -66.5 -34t-107 -26.5t-120.5 -19.5t-108 -14q-130 -16 -222 -50t-141 -93.5t-49 -152.5q0 -140 100 -216.5t251 -76.5zM800 1715
q-89 0 -161.5 40t-115 108.5t-42.5 153.5q0 86 42.5 156.5t115 112.5t161.5 42t160.5 -42t113.5 -112.5t42 -156.5q0 -85 -42 -153.5t-113.5 -108.5t-160.5 -40zM800 1837q79 0 131 55t52 125q0 73 -52 129.5t-131 56.5t-131 -56.5t-52 -129.5q0 -71 52 -125.5t131 -54.5z
" />
    <glyph glyph-name="uni00E6" unicode="&#xe6;" horiz-adv-x="2601" 
d="M1823 -32q-247 0 -414 129t-216 336l36 731q76 182 221 287.5t346 105.5q125 0 241 -45.5t208.5 -139t146 -235t53.5 -334.5v-88h-1196v157h1015q0 148 -59.5 266t-165.5 187.5t-243 69.5q-147 0 -258 -78t-173 -206t-64 -280v-94q0 -183 64 -319.5t181 -211.5t277 -75
q109 0 191.5 34t138.5 91.5t86 126.5l169 -55q-35 -97 -114.5 -179t-198 -131.5t-272.5 -49.5zM688 128q142 0 246 63t160.5 167.5t56.5 230.5v222q-20 -19 -66.5 -34t-107 -26.5t-120.5 -19.5t-108 -14q-130 -16 -222 -50t-141 -93.5t-49 -152.5q0 -140 100 -216.5
t251 -76.5zM664 -35q-139 0 -254 54.5t-183 158t-68 251.5q0 114 43 192t122 128.5t187.5 79.5t237.5 44q129 16 218.5 28t136.5 38t47 84v36q0 157 -94 247.5t-268 90.5q-166 0 -270.5 -73t-146.5 -172l-169 61q52 126 144 201.5t206 109t231 33.5q80 0 163 -19t157.5 -62
t129 -115.5t77.5 -179.5l-62 -834h-17q-35 -119 -121 -204.5t-202.5 -131.5t-244.5 -46z" />
    <glyph glyph-name="uni00E7" unicode="&#xe7;" horiz-adv-x="1567" 
d="M835 -32q-206 0 -358.5 103t-236.5 282t-84 408q0 231 85.5 411t237.5 282.5t353 102.5q154 0 279 -59.5t206.5 -167t102.5 -250.5h-180q-28 130 -134.5 222.5t-270.5 92.5q-147 0 -260 -79.5t-176.5 -221t-63.5 -327.5q0 -187 62 -330.5t174.5 -224.5t263.5 -81
q102 0 186.5 38.5t142 109.5t77.5 169h180q-20 -139 -98.5 -247.5t-203 -170.5t-284.5 -62zM744 8h152l-15 -80q86 -13 146.5 -69.5t61.5 -165.5q-1 -121 -94.5 -192t-275.5 -73l-6 125q99 2 156 33.5t57 101.5q0 75 -52.5 106t-165.5 37z" />
    <glyph glyph-name="uni00E8" unicode="&#xe8;" horiz-adv-x="1635" 
d="M856 -32q-215 0 -372 100.5t-242.5 279t-85.5 411.5q0 232 85.5 412.5t237 283t350.5 102.5q125 0 241 -45.5t208.5 -139t146.5 -235t54 -334.5v-88h-1200v157h1018q0 148 -59.5 266.5t-165 187.5t-243.5 69q-146 0 -257 -78t-173.5 -206t-63.5 -280v-94
q0 -183 63.5 -319.5t180.5 -211.5t277 -75q109 0 191.5 34t139 91.5t85.5 126.5l169 -55q-35 -97 -114.5 -179t-198 -131.5t-272.5 -49.5zM744 1749l-307 454h211l256 -454h-160z" />
    <glyph glyph-name="uni00E9" unicode="&#xe9;" horiz-adv-x="1635" 
d="M856 -32q-215 0 -372 100.5t-242.5 279t-85.5 411.5q0 232 85.5 412.5t237 283t350.5 102.5q125 0 241 -45.5t208.5 -139t146.5 -235t54 -334.5v-88h-1200v157h1018q0 148 -59.5 266.5t-165 187.5t-243.5 69q-146 0 -257 -78t-173.5 -206t-63.5 -280v-94
q0 -183 63.5 -319.5t180.5 -211.5t277 -75q109 0 191.5 34t139 91.5t85.5 126.5l169 -55q-35 -97 -114.5 -179t-198 -131.5t-272.5 -49.5zM737 1749l256 454h211l-307 -454h-160z" />
    <glyph glyph-name="uni00EA" unicode="&#xea;" horiz-adv-x="1635" 
d="M856 -32q-215 0 -372 100.5t-242.5 279t-85.5 411.5q0 232 85.5 412.5t237 283t350.5 102.5q125 0 241 -45.5t208.5 -139t146.5 -235t54 -334.5v-88h-1200v157h1018q0 148 -59.5 266.5t-165 187.5t-243.5 69q-146 0 -257 -78t-173.5 -206t-63.5 -280v-94
q0 -183 63.5 -319.5t180.5 -211.5t277 -75q109 0 191.5 34t139 91.5t85.5 126.5l169 -55q-35 -97 -114.5 -179t-198 -131.5t-272.5 -49.5zM1059 1712l-239 289l-239 -289h-174v13l338 403h150l338 -403v-13h-174z" />
    <glyph glyph-name="uni00EB" unicode="&#xeb;" horiz-adv-x="1635" 
d="M856 -32q-215 0 -372 100.5t-242.5 279t-85.5 411.5q0 232 85.5 412.5t237 283t350.5 102.5q125 0 241 -45.5t208.5 -139t146.5 -235t54 -334.5v-88h-1200v157h1018q0 148 -59.5 266.5t-165 187.5t-243.5 69q-146 0 -257 -78t-173.5 -206t-63.5 -280v-94
q0 -183 63.5 -319.5t180.5 -211.5t277 -75q109 0 191.5 34t139 91.5t85.5 126.5l169 -55q-35 -97 -114.5 -179t-198 -131.5t-272.5 -49.5zM564 1800q-51 0 -89.5 38.5t-38.5 89.5q0 55 38.5 91.5t89.5 36.5q55 0 91.5 -36.5t36.5 -91.5q0 -51 -36.5 -89.5t-91.5 -38.5z
M1076 1800q-51 0 -89.5 38.5t-38.5 89.5q0 55 38.5 91.5t89.5 36.5q55 0 91.5 -36.5t36.5 -91.5q0 -51 -36.5 -89.5t-91.5 -38.5z" />
    <glyph glyph-name="uni00EC" unicode="&#xec;" horiz-adv-x="653" 
d="M237 0v1536h179v-1536h-179zM252 1749l-307 454h211l256 -454h-160z" />
    <glyph glyph-name="uni00ED" unicode="&#xed;" horiz-adv-x="653" 
d="M237 0v1536h179v-1536h-179zM245 1749l256 454h211l-307 -454h-160z" />
    <glyph glyph-name="uni00EE" unicode="&#xee;" horiz-adv-x="653" 
d="M237 0v1536h179v-1536h-179zM567 1712l-239 289l-239 -289h-174v13l338 403h150l338 -403v-13h-174z" />
    <glyph glyph-name="uni00EF" unicode="&#xef;" horiz-adv-x="653" 
d="M237 0v1536h179v-1536h-179zM72 1800q-51 0 -89.5 38.5t-38.5 89.5q0 55 38.5 91.5t89.5 36.5q55 0 91.5 -36.5t36.5 -91.5q0 -51 -36.5 -89.5t-91.5 -38.5zM584 1800q-51 0 -89.5 38.5t-38.5 89.5q0 55 38.5 91.5t89.5 36.5q55 0 91.5 -36.5t36.5 -91.5
q0 -51 -36.5 -89.5t-91.5 -38.5z" />
    <glyph glyph-name="uni00F0" unicode="&#xf0;" horiz-adv-x="1645" 
d="M1335 1969l-808 -383l-51 119l808 383zM823 -32q-199 0 -349 96.5t-234 263.5t-84 379q0 216 84 383t226 262t317 95q115 0 206 -39.5t158 -104t110 -140.5h17q-51 151 -147.5 309.5t-251.5 305.5t-381 265l76 133q181 -95 346 -237t294.5 -324t203.5 -399t75 -463
q0 -245 -85 -421t-235 -270t-346 -94zM823 131q152 0 263 75.5t170.5 203.5t59.5 287q0 150 -56.5 287t-166.5 224t-270 87q-153 0 -262 -80.5t-167.5 -214t-58.5 -293.5q0 -154 56 -285.5t165 -211t267 -79.5z" />
    <glyph glyph-name="uni00F1" unicode="&#xf1;" horiz-adv-x="1632" 
d="M413 960v-960h-178v1536h173v-241h16q54 118 168.5 189.5t283.5 71.5q155 0 272.5 -64.5t183 -189.5t65.5 -307v-995h-178v984q0 189 -105.5 299t-282.5 110q-121 0 -215 -52t-148.5 -149.5t-54.5 -231.5zM480 1748l-144 8q5 133 88 218t203 85q61 0 107 -21.5t86.5 -49
t83 -48.5t96.5 -21q61 0 106.5 44t51.5 109l141 -16q-7 -134 -90.5 -214.5t-200.5 -80.5q-67 0 -112.5 21.5t-82 49t-78 48.5t-100.5 21q-64 0 -107.5 -44t-47.5 -109z" />
    <glyph glyph-name="uni00F2" unicode="&#xf2;" horiz-adv-x="1664" 
d="M832 -32q-199 0 -351.5 101t-238.5 279.5t-86 412.5q0 236 86 415.5t238.5 280t351.5 100.5t351 -101t238.5 -280t86.5 -415q0 -234 -86 -412.5t-238.5 -279.5t-351.5 -101zM832 131q160 0 271 86t168.5 229t57.5 315t-57.5 316t-168.5 231t-271 87q-159 0 -270.5 -87
t-169 -231t-57.5 -316t57.5 -315t168.5 -229t271 -86zM756 1749l-307 454h211l256 -454h-160z" />
    <glyph glyph-name="uni00F3" unicode="&#xf3;" horiz-adv-x="1664" 
d="M832 -32q-199 0 -351.5 101t-238.5 279.5t-86 412.5q0 236 86 415.5t238.5 280t351.5 100.5t351 -101t238.5 -280t86.5 -415q0 -234 -86 -412.5t-238.5 -279.5t-351.5 -101zM832 131q160 0 271 86t168.5 229t57.5 315t-57.5 316t-168.5 231t-271 87q-159 0 -270.5 -87
t-169 -231t-57.5 -316t57.5 -315t168.5 -229t271 -86zM749 1749l256 454h211l-307 -454h-160z" />
    <glyph glyph-name="uni00F4" unicode="&#xf4;" horiz-adv-x="1664" 
d="M832 -32q-199 0 -351.5 101t-238.5 279.5t-86 412.5q0 236 86 415.5t238.5 280t351.5 100.5t351 -101t238.5 -280t86.5 -415q0 -234 -86 -412.5t-238.5 -279.5t-351.5 -101zM832 131q160 0 271 86t168.5 229t57.5 315t-57.5 316t-168.5 231t-271 87q-159 0 -270.5 -87
t-169 -231t-57.5 -316t57.5 -315t168.5 -229t271 -86zM1071 1712l-239 289l-239 -289h-174v13l338 403h150l338 -403v-13h-174z" />
    <glyph glyph-name="uni00F5" unicode="&#xf5;" horiz-adv-x="1664" 
d="M832 -32q-199 0 -351.5 101t-238.5 279.5t-86 412.5q0 236 86 415.5t238.5 280t351.5 100.5t351 -101t238.5 -280t86.5 -415q0 -234 -86 -412.5t-238.5 -279.5t-351.5 -101zM832 131q160 0 271 86t168.5 229t57.5 315t-57.5 316t-168.5 231t-271 87q-159 0 -270.5 -87
t-169 -231t-57.5 -316t57.5 -315t168.5 -229t271 -86zM494 1748l-144 8q5 133 88 218t203 85q61 0 107 -21.5t86.5 -49t83 -48.5t96.5 -21q61 0 106.5 44t51.5 109l141 -16q-7 -134 -90.5 -214.5t-200.5 -80.5q-67 0 -112.5 21.5t-82 49t-78 48.5t-100.5 21
q-64 0 -107.5 -44t-47.5 -109z" />
    <glyph glyph-name="uni00F6" unicode="&#xf6;" horiz-adv-x="1664" 
d="M832 -32q-199 0 -351.5 101t-238.5 279.5t-86 412.5q0 236 86 415.5t238.5 280t351.5 100.5t351 -101t238.5 -280t86.5 -415q0 -234 -86 -412.5t-238.5 -279.5t-351.5 -101zM832 131q160 0 271 86t168.5 229t57.5 315t-57.5 316t-168.5 231t-271 87q-159 0 -270.5 -87
t-169 -231t-57.5 -316t57.5 -315t168.5 -229t271 -86zM576 1800q-51 0 -89.5 38.5t-38.5 89.5q0 55 38.5 91.5t89.5 36.5q55 0 91.5 -36.5t36.5 -91.5q0 -51 -36.5 -89.5t-91.5 -38.5zM1088 1800q-51 0 -89.5 38.5t-38.5 89.5q0 55 38.5 91.5t89.5 36.5q55 0 91.5 -36.5
t36.5 -91.5q0 -51 -36.5 -89.5t-91.5 -38.5z" />
    <glyph glyph-name="uni00F7" unicode="&#xf7;" horiz-adv-x="1835" 
d="M1537 885v-170h-1240v170h1240zM917 160q-60 0 -102 42t-42 102q0 58 42 99.5t102 41.5q58 0 100 -41.5t42 -99.5q0 -60 -42 -102t-100 -42zM917 1155q-40 0 -72.5 19t-52 52t-19.5 73q0 58 42 99.5t102 41.5q58 0 100 -41.5t42 -99.5q0 -60 -42 -102t-100 -42z" />
    <glyph glyph-name="uni00F8" unicode="&#xf8;" horiz-adv-x="1664" 
d="M357 -69l-120 81l1070 1585l120 -81zM832 -31q-199 0 -351.5 101t-238.5 280t-86 413q0 235 86 414.5t238.5 280.5t351.5 101t351 -101t238.5 -280.5t86.5 -414.5q0 -234 -86 -413t-238.5 -280t-351.5 -101zM832 132q160 0 271 86t168.5 229.5t57.5 315.5t-57.5 315.5
t-168.5 230.5t-271 87q-159 0 -270.5 -87t-169 -230.5t-57.5 -315.5t57.5 -315.5t168.5 -229.5t271 -86z" />
    <glyph glyph-name="uni00F9" unicode="&#xf9;" horiz-adv-x="1624" 
d="M1211 587v949h178v-1536h-178v255h-14q-54 -118 -171 -196.5t-286 -78.5q-147 0 -261 64.5t-179 189.5t-65 307v995h178v-984q0 -180 106 -289.5t272 -109.5q104 0 200 50t158 146.5t62 237.5zM737 1749l-307 454h211l256 -454h-160z" />
    <glyph glyph-name="uni00FA" unicode="&#xfa;" horiz-adv-x="1624" 
d="M1211 587v949h178v-1536h-178v255h-14q-54 -118 -171 -196.5t-286 -78.5q-147 0 -261 64.5t-179 189.5t-65 307v995h178v-984q0 -180 106 -289.5t272 -109.5q104 0 200 50t158 146.5t62 237.5zM730 1749l256 454h211l-307 -454h-160z" />
    <glyph glyph-name="uni00FB" unicode="&#xfb;" horiz-adv-x="1624" 
d="M1211 587v949h178v-1536h-178v255h-14q-54 -118 -171 -196.5t-286 -78.5q-147 0 -261 64.5t-179 189.5t-65 307v995h178v-984q0 -180 106 -289.5t272 -109.5q104 0 200 50t158 146.5t62 237.5zM1052 1712l-239 289l-239 -289h-174v13l338 403h150l338 -403v-13h-174z" />
    <glyph glyph-name="uni00FC" unicode="&#xfc;" horiz-adv-x="1624" 
d="M1211 587v949h178v-1536h-178v255h-14q-54 -118 -171 -196.5t-286 -78.5q-147 0 -261 64.5t-179 189.5t-65 307v995h178v-984q0 -180 106 -289.5t272 -109.5q104 0 200 50t158 146.5t62 237.5zM557 1800q-51 0 -89.5 38.5t-38.5 89.5q0 55 38.5 91.5t89.5 36.5
q55 0 91.5 -36.5t36.5 -91.5q0 -51 -36.5 -89.5t-91.5 -38.5zM1069 1800q-51 0 -89.5 38.5t-38.5 89.5q0 55 38.5 91.5t89.5 36.5q55 0 91.5 -36.5t36.5 -91.5q0 -51 -36.5 -89.5t-91.5 -38.5z" />
    <glyph glyph-name="uni00FD" unicode="&#xfd;" horiz-adv-x="1536" 
d="M359 -576q-53 0 -99 10t-73 22l48 157q91 -28 162 -20.5t126 64t98 172.5l56 156l-565 1551h193l456 -1301h14l456 1301h193l-650 -1779q-41 -111 -101 -185.5t-138.5 -111t-175.5 -36.5zM685 1749l256 454h211l-307 -454h-160z" />
    <glyph glyph-name="uni00FE" unicode="&#xfe;" horiz-adv-x="1685" 
d="M232 2048h179v-952l-47 -317l47 -392v-963h-179v2624zM337 1243h90q31 69 87 141.5t148.5 122.5t233.5 50q190 0 333 -99.5t222.5 -278t79.5 -415.5q0 -238 -80 -417t-222 -279t-330 -100q-140 0 -233.5 50t-151 123.5t-87.5 143.5h-90v958zM1352 767q0 177 -54.5 319
t-160 225.5t-260.5 83.5q-150 0 -255 -80.5t-159.5 -222t-54.5 -325.5q0 -186 55.5 -329.5t160.5 -225t253 -81.5q153 0 259 84.5t161 228.5t55 323z" />
    <glyph glyph-name="uni00FF" unicode="&#xff;" horiz-adv-x="1536" 
d="M359 -576q-53 0 -99 10t-73 22l48 157q91 -28 162 -20.5t126 64t98 172.5l56 156l-565 1551h193l456 -1301h14l456 1301h193l-650 -1779q-41 -111 -101 -185.5t-138.5 -111t-175.5 -36.5zM512 1800q-51 0 -89.5 38.5t-38.5 89.5q0 55 38.5 91.5t89.5 36.5
q55 0 91.5 -36.5t36.5 -91.5q0 -51 -36.5 -89.5t-91.5 -38.5zM1024 1800q-51 0 -89.5 38.5t-38.5 89.5q0 55 38.5 91.5t89.5 36.5q55 0 91.5 -36.5t36.5 -91.5q0 -51 -36.5 -89.5t-91.5 -38.5z" />
    <glyph glyph-name="uni0100" unicode="&#x100;" horiz-adv-x="1848" 
d="M275 0h-196l745 2048h200l745 -2048h-196l-642 1805h-14zM416 785h1016v-168h-1016v168zM1342 2515v-155h-837v155h837z" />
    <glyph glyph-name="uni0101" unicode="&#x101;" horiz-adv-x="1567" 
d="M664 -35q-139 0 -254 54.5t-183 158t-68 251.5q0 114 43 192t122 128t187 79t238 45q129 16 218.5 28t136.5 38t47 84v36q0 157 -93.5 247.5t-268.5 90.5q-166 0 -270.5 -73t-146.5 -172l-169 61q52 126 144 201.5t206 109t231 33.5q88 0 183.5 -23t177.5 -79.5t133 -157
t51 -254.5v-1043h-178v243h-11q-32 -68 -95 -132t-158 -105t-223 -41zM688 128q142 0 246 63t160.5 167.5t56.5 230.5v222q-20 -19 -66.5 -34t-107 -26.5t-120.5 -19.5t-108 -14q-130 -16 -222 -50t-141 -93.5t-49 -152.5q0 -140 100 -216.5t251 -76.5zM1218 2003v-155h-837
v155h837z" />
    <glyph glyph-name="uni0102" unicode="&#x102;" horiz-adv-x="1848" 
d="M275 0h-196l745 2048h200l745 -2048h-196l-642 1805h-14zM416 785h1016v-168h-1016v168zM1108 2560h168q0 -143 -94.5 -232t-257.5 -89q-161 0 -255 89t-94 232h168q0 -78 42.5 -131.5t138.5 -53.5t140 53.5t44 131.5z" />
    <glyph glyph-name="uni0103" unicode="&#x103;" horiz-adv-x="1567" 
d="M664 -35q-139 0 -254 54.5t-183 158t-68 251.5q0 114 43 192t122 128t187 79t238 45q129 16 218.5 28t136.5 38t47 84v36q0 157 -93.5 247.5t-268.5 90.5q-166 0 -270.5 -73t-146.5 -172l-169 61q52 126 144 201.5t206 109t231 33.5q88 0 183.5 -23t177.5 -79.5t133 -157
t51 -254.5v-1043h-178v243h-11q-32 -68 -95 -132t-158 -105t-223 -41zM688 128q142 0 246 63t160.5 167.5t56.5 230.5v222q-20 -19 -66.5 -34t-107 -26.5t-120.5 -19.5t-108 -14q-130 -16 -222 -50t-141 -93.5t-49 -152.5q0 -140 100 -216.5t251 -76.5zM984 2048h168
q0 -143 -94.5 -232t-257.5 -89q-161 0 -255 89t-94 232h168q0 -78 42.5 -131.5t138.5 -53.5t140 53.5t44 131.5z" />
    <glyph glyph-name="uni0104" unicode="&#x104;" horiz-adv-x="1848" 
d="M275 0h-196l745 2048h200l745 -2048h-196l-642 1805h-14zM416 785h1016v-168h-1016v168zM1628 -603q-116 0 -192 65t-76 189q0 74 33.5 144t103 135.5t179.5 125.5l94 -56q-95 -78 -161.5 -157t-66.5 -170q0 -60 30.5 -90.5t95.5 -30.5q45 0 79.5 12.5t60.5 28.5l23 -134
q-36 -25 -86.5 -43.5t-116.5 -18.5z" />
    <glyph glyph-name="uni0105" unicode="&#x105;" horiz-adv-x="1567" 
d="M664 -35q-139 0 -254 54.5t-183 158t-68 251.5q0 114 43 192t122 128t187 79t238 45q129 16 218.5 28t136.5 38t47 84v36q0 157 -93.5 247.5t-268.5 90.5q-166 0 -270.5 -73t-146.5 -172l-169 61q52 126 144 201.5t206 109t231 33.5q88 0 183.5 -23t177.5 -79.5t133 -157
t51 -254.5v-1043h-178v243h-11q-32 -68 -95 -132t-158 -105t-223 -41zM688 128q142 0 246 63t160.5 167.5t56.5 230.5v222q-20 -19 -66.5 -34t-107 -26.5t-120.5 -19.5t-108 -14q-130 -16 -222 -50t-141 -93.5t-49 -152.5q0 -140 100 -216.5t251 -76.5zM1188 -603
q-116 0 -192 65t-76 189q0 74 33.5 144t103 135.5t179.5 125.5l94 -56q-95 -78 -161.5 -157t-66.5 -170q0 -60 30.5 -90.5t95.5 -30.5q45 0 79.5 12.5t60.5 28.5l23 -134q-36 -25 -86.5 -43.5t-116.5 -18.5z" />
    <glyph glyph-name="uni0106" unicode="&#x106;" horiz-adv-x="2044" 
d="M1876 1408h-188q-21 105 -75.5 194.5t-136.5 156.5t-186 104t-225 37q-194 0 -353.5 -101t-255 -296.5t-95.5 -478.5q0 -285 95.5 -480t255 -295.5t353.5 -100.5q121 0 225 37t186 103.5t136.5 156.5t75.5 195h188q-25 -141 -93.5 -262.5t-174 -212.5t-242.5 -142
t-301 -51q-258 0 -458 129.5t-313.5 365.5t-113.5 557t113.5 557t313.5 365.5t458 129.5q164 0 301 -50.5t242.5 -142t174 -212.5t93.5 -263zM982 2261l256 454h211l-307 -454h-160z" />
    <glyph glyph-name="uni0107" unicode="&#x107;" horiz-adv-x="1567" 
d="M835 -32q-206 0 -358.5 103t-236.5 282t-84 408q0 231 85.5 411t237.5 282.5t353 102.5q154 0 279 -59.5t206.5 -167t102.5 -250.5h-180q-28 130 -134.5 222.5t-270.5 92.5q-147 0 -260 -79.5t-176.5 -221t-63.5 -327.5q0 -187 62 -330.5t174.5 -224.5t263.5 -81
q102 0 186.5 38.5t142 109.5t77.5 169h180q-20 -139 -98.5 -247.5t-203 -170.5t-284.5 -62zM741 1749l256 454h211l-307 -454h-160z" />
    <glyph glyph-name="uni0108" unicode="&#x108;" horiz-adv-x="2044" 
d="M1876 1408h-188q-21 105 -75.5 194.5t-136.5 156.5t-186 104t-225 37q-194 0 -353.5 -101t-255 -296.5t-95.5 -478.5q0 -285 95.5 -480t255 -295.5t353.5 -100.5q121 0 225 37t186 103.5t136.5 156.5t75.5 195h188q-25 -141 -93.5 -262.5t-174 -212.5t-242.5 -142
t-301 -51q-258 0 -458 129.5t-313.5 365.5t-113.5 557t113.5 557t313.5 365.5t458 129.5q164 0 301 -50.5t242.5 -142t174 -212.5t93.5 -263zM1304 2224l-239 289l-239 -289h-174v13l338 403h150l338 -403v-13h-174z" />
    <glyph glyph-name="uni0109" unicode="&#x109;" horiz-adv-x="1567" 
d="M835 -32q-206 0 -358.5 103t-236.5 282t-84 408q0 231 85.5 411t237.5 282.5t353 102.5q154 0 279 -59.5t206.5 -167t102.5 -250.5h-180q-28 130 -134.5 222.5t-270.5 92.5q-147 0 -260 -79.5t-176.5 -221t-63.5 -327.5q0 -187 62 -330.5t174.5 -224.5t263.5 -81
q102 0 186.5 38.5t142 109.5t77.5 169h180q-20 -139 -98.5 -247.5t-203 -170.5t-284.5 -62zM1063 1712l-239 289l-239 -289h-174v13l338 403h150l338 -403v-13h-174z" />
    <glyph glyph-name="uni010A" unicode="&#x10a;" horiz-adv-x="2044" 
d="M1876 1408h-188q-21 105 -75.5 194.5t-136.5 156.5t-186 104t-225 37q-194 0 -353.5 -101t-255 -296.5t-95.5 -478.5q0 -285 95.5 -480t255 -295.5t353.5 -100.5q121 0 225 37t186 103.5t136.5 156.5t75.5 195h188q-25 -141 -93.5 -262.5t-174 -212.5t-242.5 -142
t-301 -51q-258 0 -458 129.5t-313.5 365.5t-113.5 557t113.5 557t313.5 365.5t458 129.5q164 0 301 -50.5t242.5 -142t174 -212.5t93.5 -263zM1065 2312q-54 0 -93.5 37.5t-39.5 90.5t39.5 90.5t93.5 37.5q55 0 94.5 -37.5t39.5 -90.5t-39.5 -90.5t-94.5 -37.5z" />
    <glyph glyph-name="uni010B" unicode="&#x10b;" horiz-adv-x="1567" 
d="M835 -32q-206 0 -358.5 103t-236.5 282t-84 408q0 231 85.5 411t237.5 282.5t353 102.5q154 0 279 -59.5t206.5 -167t102.5 -250.5h-180q-28 130 -134.5 222.5t-270.5 92.5q-147 0 -260 -79.5t-176.5 -221t-63.5 -327.5q0 -187 62 -330.5t174.5 -224.5t263.5 -81
q102 0 186.5 38.5t142 109.5t77.5 169h180q-20 -139 -98.5 -247.5t-203 -170.5t-284.5 -62zM824 1800q-54 0 -93.5 37.5t-39.5 90.5t39.5 90.5t93.5 37.5q55 0 94.5 -37.5t39.5 -90.5t-39.5 -90.5t-94.5 -37.5z" />
    <glyph glyph-name="uni010C" unicode="&#x10c;" horiz-adv-x="2044" 
d="M1876 1408h-188q-21 105 -75.5 194.5t-136.5 156.5t-186 104t-225 37q-194 0 -353.5 -101t-255 -296.5t-95.5 -478.5q0 -285 95.5 -480t255 -295.5t353.5 -100.5q121 0 225 37t186 103.5t136.5 156.5t75.5 195h188q-25 -141 -93.5 -262.5t-174 -212.5t-242.5 -142
t-301 -51q-258 0 -458 129.5t-313.5 365.5t-113.5 557t113.5 557t313.5 365.5t458 129.5q164 0 301 -50.5t242.5 -142t174 -212.5t93.5 -263zM826 2658l239 -290l239 290h174v-14l-338 -402h-150l-338 402v14h174z" />
    <glyph glyph-name="uni010D" unicode="&#x10d;" horiz-adv-x="1567" 
d="M835 -32q-206 0 -358.5 103t-236.5 282t-84 408q0 231 85.5 411t237.5 282.5t353 102.5q154 0 279 -59.5t206.5 -167t102.5 -250.5h-180q-28 130 -134.5 222.5t-270.5 92.5q-147 0 -260 -79.5t-176.5 -221t-63.5 -327.5q0 -187 62 -330.5t174.5 -224.5t263.5 -81
q102 0 186.5 38.5t142 109.5t77.5 169h180q-20 -139 -98.5 -247.5t-203 -170.5t-284.5 -62zM585 2146l239 -290l239 290h174v-14l-338 -402h-150l-338 402v14h174z" />
    <glyph glyph-name="uni010E" unicode="&#x10e;" horiz-adv-x="2020" 
d="M872 0h-600v2048h636q293 0 501.5 -122t319.5 -350t111 -547q0 -322 -113.5 -552.5t-330 -353.5t-524.5 -123zM459 168h402q264 0 442 104t267 297t89 460q-1 265 -87.5 456t-256 293t-418.5 102h-438v-1712zM616 2658l239 -290l239 290h174v-14l-338 -402h-150l-338 402
v14h174z" />
    <glyph glyph-name="uni010F" unicode="&#x10f;" horiz-adv-x="1798" 
d="M788 -32q-189 0 -331 100t-221.5 279t-79.5 417q0 237 79.5 415.5t222.5 278t333 99.5q140 0 233 -49.5t149 -122.5t87 -142h16v805h179v-2048h-174v285h-21q-31 -70 -88 -143.5t-150.5 -123.5t-233.5 -50zM809 131q149 0 254 81.5t160.5 225t55.5 329.5q0 184 -55 325.5
t-160 222t-255 80.5q-154 0 -259.5 -83.5t-160 -225.5t-54.5 -319q0 -179 55 -323t160.5 -228.5t258.5 -84.5zM1646 1626v518h184l-52 -518h-132z" />
    <glyph glyph-name="uni0110" unicode="&#x110;" horiz-adv-x="2020" 
d="M872 0h-496v168h485q264 0 442 104t267 297t89 460q-1 265 -87.5 456t-256 293t-418.5 102h-529v168h540q293 0 501.5 -122t319.5 -350t111 -547q0 -322 -113.5 -552.5t-330 -353.5t-524.5 -123zM459 2048v-2048h-187v2048h187zM-55 979v144h840v-144h-840z" />
    <glyph glyph-name="uni0111" unicode="&#x111;" horiz-adv-x="1727" 
d="M788 -32q-189 0 -331 100t-221.5 279t-79.5 417q0 237 79.5 415.5t222.5 278t333 99.5q140 0 233 -49.5t149 -122.5t87 -142h16v805h179v-2048h-174v285h-21q-31 -70 -88 -143.5t-150.5 -123.5t-233.5 -50zM809 131q149 0 254 81.5t160.5 225t55.5 329.5q0 184 -55 325.5
t-160 222t-255 80.5q-154 0 -259.5 -83.5t-160 -225.5t-54.5 -319q0 -179 55 -323t160.5 -228.5t258.5 -84.5zM851 1688v144h840v-144h-840z" />
    <glyph glyph-name="uni0112" unicode="&#x112;" horiz-adv-x="1671" 
d="M272 0v2048h1188v-168h-1001v-771h938v-168h-938v-773h1021v-168h-1208zM1285 2515v-155h-837v155h837z" />
    <glyph glyph-name="uni0113" unicode="&#x113;" horiz-adv-x="1635" 
d="M856 -32q-215 0 -372 100.5t-242.5 279t-85.5 411.5q0 232 85.5 412.5t237 283t350.5 102.5q125 0 241 -45.5t208.5 -139t146.5 -235t54 -334.5v-88h-1200v157h1018q0 148 -59.5 266.5t-165 187.5t-243.5 69q-146 0 -257 -78t-173.5 -206t-63.5 -280v-94
q0 -183 63.5 -319.5t180.5 -211.5t277 -75q109 0 191.5 34t139 91.5t85.5 126.5l169 -55q-35 -97 -114.5 -179t-198 -131.5t-272.5 -49.5zM1238 2003v-155h-837v155h837z" />
    <glyph glyph-name="uni0114" unicode="&#x114;" horiz-adv-x="1671" 
d="M272 0v2048h1188v-168h-1001v-771h938v-168h-938v-773h1021v-168h-1208zM1051 2560h168q0 -143 -94.5 -232t-257.5 -89q-161 0 -255 89t-94 232h168q0 -78 42.5 -131.5t138.5 -53.5t140 53.5t44 131.5z" />
    <glyph glyph-name="uni0115" unicode="&#x115;" horiz-adv-x="1635" 
d="M856 -32q-215 0 -372 100.5t-242.5 279t-85.5 411.5q0 232 85.5 412.5t237 283t350.5 102.5q125 0 241 -45.5t208.5 -139t146.5 -235t54 -334.5v-88h-1200v157h1018q0 148 -59.5 266.5t-165 187.5t-243.5 69q-146 0 -257 -78t-173.5 -206t-63.5 -280v-94
q0 -183 63.5 -319.5t180.5 -211.5t277 -75q109 0 191.5 34t139 91.5t85.5 126.5l169 -55q-35 -97 -114.5 -179t-198 -131.5t-272.5 -49.5zM1004 2048h168q0 -143 -94.5 -232t-257.5 -89q-161 0 -255 89t-94 232h168q0 -78 42.5 -131.5t138.5 -53.5t140 53.5t44 131.5z" />
    <glyph glyph-name="uni0116" unicode="&#x116;" horiz-adv-x="1671" 
d="M272 0v2048h1188v-168h-1001v-771h938v-168h-938v-773h1021v-168h-1208zM866 2312q-54 0 -93.5 37.5t-39.5 90.5t39.5 90.5t93.5 37.5q55 0 94.5 -37.5t39.5 -90.5t-39.5 -90.5t-94.5 -37.5z" />
    <glyph glyph-name="uni0117" unicode="&#x117;" horiz-adv-x="1635" 
d="M856 -32q-215 0 -372 100.5t-242.5 279t-85.5 411.5q0 232 85.5 412.5t237 283t350.5 102.5q125 0 241 -45.5t208.5 -139t146.5 -235t54 -334.5v-88h-1200v157h1018q0 148 -59.5 266.5t-165 187.5t-243.5 69q-146 0 -257 -78t-173.5 -206t-63.5 -280v-94
q0 -183 63.5 -319.5t180.5 -211.5t277 -75q109 0 191.5 34t139 91.5t85.5 126.5l169 -55q-35 -97 -114.5 -179t-198 -131.5t-272.5 -49.5zM820 1800q-54 0 -93.5 37.5t-39.5 90.5t39.5 90.5t93.5 37.5q55 0 94.5 -37.5t39.5 -90.5t-39.5 -90.5t-94.5 -37.5z" />
    <glyph glyph-name="uni0118" unicode="&#x118;" horiz-adv-x="1671" 
d="M272 0v2048h1188v-168h-1001v-771h938v-168h-938v-773h1021v-168h-1208zM1338 -603q-116 0 -192 65t-76 189q0 74 33.5 144t103 135.5t179.5 125.5l94 -56q-95 -78 -161.5 -157t-66.5 -170q0 -60 30.5 -90.5t95.5 -30.5q45 0 79.5 12.5t60.5 28.5l23 -134
q-36 -25 -86.5 -43.5t-116.5 -18.5z" />
    <glyph glyph-name="uni0119" unicode="&#x119;" horiz-adv-x="1635" 
d="M856 -32q-215 0 -372 100.5t-242.5 279t-85.5 411.5q0 232 85.5 412.5t237 283t350.5 102.5q125 0 241 -45.5t208.5 -139t146.5 -235t54 -334.5v-88h-1200v157h1018q0 148 -59.5 266.5t-165 187.5t-243.5 69q-146 0 -257 -78t-173.5 -206t-63.5 -280v-94
q0 -183 63.5 -319.5t180.5 -211.5t277 -75q109 0 191.5 34t139 91.5t85.5 126.5l169 -55q-35 -97 -114.5 -179t-198 -131.5t-272.5 -49.5zM856 -603q-116 0 -192 65t-76 189q0 74 33.5 144t103 135.5t179.5 125.5l94 -56q-95 -78 -161.5 -157t-66.5 -170q0 -60 30.5 -90.5
t95.5 -30.5q45 0 79.5 12.5t60.5 28.5l23 -134q-36 -25 -86.5 -43.5t-116.5 -18.5z" />
    <glyph glyph-name="uni011A" unicode="&#x11a;" horiz-adv-x="1671" 
d="M272 0v2048h1188v-168h-1001v-771h938v-168h-938v-773h1021v-168h-1208zM628 2658l239 -290l239 290h174v-14l-338 -402h-150l-338 402v14h174z" />
    <glyph glyph-name="uni011B" unicode="&#x11b;" horiz-adv-x="1635" 
d="M856 -32q-215 0 -372 100.5t-242.5 279t-85.5 411.5q0 232 85.5 412.5t237 283t350.5 102.5q125 0 241 -45.5t208.5 -139t146.5 -235t54 -334.5v-88h-1200v157h1018q0 148 -59.5 266.5t-165 187.5t-243.5 69q-146 0 -257 -78t-173.5 -206t-63.5 -280v-94
q0 -183 63.5 -319.5t180.5 -211.5t277 -75q109 0 191.5 34t139 91.5t85.5 126.5l169 -55q-35 -97 -114.5 -179t-198 -131.5t-272.5 -49.5zM581 2146l239 -290l239 290h174v-14l-338 -402h-150l-338 402v14h174z" />
    <glyph glyph-name="uni011C" unicode="&#x11c;" horiz-adv-x="2088" 
d="M1689 1408q-28 102 -82 191.5t-133.5 157t-183 105.5t-230.5 38q-200 0 -358 -104t-249.5 -300t-91.5 -472q0 -275 92 -471t252.5 -300.5t367.5 -104.5q189 0 334 84t226.5 240t79.5 371l60 -19h-656v168h778v-168q0 -262 -106 -453t-291 -295t-425 -104
q-268 0 -469 129.5t-312.5 366t-111.5 556.5q0 241 64 435t181.5 332t278.5 211.5t356 73.5q168 0 307.5 -53t246 -145.5t175 -213t92.5 -256.5h-192zM1295 2224l-239 289l-239 -289h-174v13l338 403h150l338 -403v-13h-174z" />
    <glyph glyph-name="uni011D" unicode="&#x11d;" horiz-adv-x="1692" 
d="M821 -608q-157 0 -275 40.5t-199 110.5t-126 157l146 96q33 -58 88.5 -114t145 -93t220.5 -37q204 0 329.5 102t125.5 317v346h-16q-31 -70 -89 -139.5t-151.5 -115.5t-231.5 -46q-184 0 -326.5 91t-224 260.5t-81.5 404.5q0 233 79.5 410t222.5 276t333 99
q141 0 234 -49.5t149.5 -122.5t88.5 -142h18v293h174v-1576q0 -195 -83 -321t-226 -186.5t-325 -60.5zM809 179q148 0 253 71.5t161 205.5t56 319q0 180 -55 319.5t-159.5 220t-255.5 80.5q-154 0 -260 -83t-160 -223.5t-54 -313.5q0 -176 55 -310.5t161 -210t258 -75.5z
M1086 1712l-239 289l-239 -289h-174v13l338 403h150l338 -403v-13h-174z" />
    <glyph glyph-name="uni011E" unicode="&#x11e;" horiz-adv-x="2088" 
d="M1689 1408q-28 102 -82 191.5t-133.5 157t-183 105.5t-230.5 38q-200 0 -358 -104t-249.5 -300t-91.5 -472q0 -275 92 -471t252.5 -300.5t367.5 -104.5q189 0 334 84t226.5 240t79.5 371l60 -19h-656v168h778v-168q0 -262 -106 -453t-291 -295t-425 -104
q-268 0 -469 129.5t-312.5 366t-111.5 556.5q0 241 64 435t181.5 332t278.5 211.5t356 73.5q168 0 307.5 -53t246 -145.5t175 -213t92.5 -256.5h-192zM1240 2560h168q0 -143 -94.5 -232t-257.5 -89q-161 0 -255 89t-94 232h168q0 -78 42.5 -131.5t138.5 -53.5t140 53.5
t44 131.5z" />
    <glyph glyph-name="uni011F" unicode="&#x11f;" horiz-adv-x="1692" 
d="M821 -608q-157 0 -275 40.5t-199 110.5t-126 157l146 96q33 -58 88.5 -114t145 -93t220.5 -37q204 0 329.5 102t125.5 317v346h-16q-31 -70 -89 -139.5t-151.5 -115.5t-231.5 -46q-184 0 -326.5 91t-224 260.5t-81.5 404.5q0 233 79.5 410t222.5 276t333 99
q141 0 234 -49.5t149.5 -122.5t88.5 -142h18v293h174v-1576q0 -195 -83 -321t-226 -186.5t-325 -60.5zM809 179q148 0 253 71.5t161 205.5t56 319q0 180 -55 319.5t-159.5 220t-255.5 80.5q-154 0 -260 -83t-160 -223.5t-54 -313.5q0 -176 55 -310.5t161 -210t258 -75.5z
M1031 2048h168q0 -143 -94.5 -232t-257.5 -89q-161 0 -255 89t-94 232h168q0 -78 42.5 -131.5t138.5 -53.5t140 53.5t44 131.5z" />
    <glyph glyph-name="uni0120" unicode="&#x120;" horiz-adv-x="2088" 
d="M1689 1408q-28 102 -82 191.5t-133.5 157t-183 105.5t-230.5 38q-200 0 -358 -104t-249.5 -300t-91.5 -472q0 -275 92 -471t252.5 -300.5t367.5 -104.5q189 0 334 84t226.5 240t79.5 371l60 -19h-656v168h778v-168q0 -262 -106 -453t-291 -295t-425 -104
q-268 0 -469 129.5t-312.5 366t-111.5 556.5q0 241 64 435t181.5 332t278.5 211.5t356 73.5q168 0 307.5 -53t246 -145.5t175 -213t92.5 -256.5h-192zM1056 2312q-54 0 -93.5 37.5t-39.5 90.5t39.5 90.5t93.5 37.5q55 0 94.5 -37.5t39.5 -90.5t-39.5 -90.5t-94.5 -37.5z" />
    <glyph glyph-name="uni0121" unicode="&#x121;" horiz-adv-x="1692" 
d="M821 -608q-157 0 -275 40.5t-199 110.5t-126 157l146 96q33 -58 88.5 -114t145 -93t220.5 -37q204 0 329.5 102t125.5 317v346h-16q-31 -70 -89 -139.5t-151.5 -115.5t-231.5 -46q-184 0 -326.5 91t-224 260.5t-81.5 404.5q0 233 79.5 410t222.5 276t333 99
q141 0 234 -49.5t149.5 -122.5t88.5 -142h18v293h174v-1576q0 -195 -83 -321t-226 -186.5t-325 -60.5zM809 179q148 0 253 71.5t161 205.5t56 319q0 180 -55 319.5t-159.5 220t-255.5 80.5q-154 0 -260 -83t-160 -223.5t-54 -313.5q0 -176 55 -310.5t161 -210t258 -75.5z
M846 1800q-54 0 -93.5 37.5t-39.5 90.5t39.5 90.5t93.5 37.5q55 0 94.5 -37.5t39.5 -90.5t-39.5 -90.5t-94.5 -37.5z" />
    <glyph glyph-name="uni0122" unicode="&#x122;" horiz-adv-x="2088" 
d="M1689 1408q-28 102 -82 191.5t-133.5 157t-183 105.5t-230.5 38q-200 0 -358 -104t-249.5 -300t-91.5 -472q0 -275 92 -471t252.5 -300.5t367.5 -104.5q189 0 334 84t226.5 240t79.5 371l60 -19h-656v168h778v-168q0 -262 -106 -453t-291 -295t-425 -104
q-268 0 -469 129.5t-312.5 366t-111.5 556.5q0 241 64 435t181.5 332t278.5 211.5t356 73.5q168 0 307.5 -53t246 -145.5t175 -213t92.5 -256.5h-192zM840 -680l119 518h185l-164 -518h-140z" />
    <glyph glyph-name="uni0123" unicode="&#x123;" horiz-adv-x="1692" 
d="M821 -608q-157 0 -275 40.5t-199 110.5t-126 157l146 96q33 -58 88.5 -114t145 -93t220.5 -37q204 0 329.5 102t125.5 317v346h-16q-31 -70 -89 -139.5t-151.5 -115.5t-231.5 -46q-184 0 -326.5 91t-224 260.5t-81.5 404.5q0 233 79.5 410t222.5 276t333 99
q141 0 234 -49.5t149.5 -122.5t88.5 -142h18v293h174v-1576q0 -195 -83 -321t-226 -186.5t-325 -60.5zM809 179q148 0 253 71.5t161 205.5t56 319q0 180 -55 319.5t-159.5 220t-255.5 80.5q-154 0 -260 -83t-160 -223.5t-54 -313.5q0 -176 55 -310.5t161 -210t258 -75.5z
M739 1736v135q0 88 26.5 167t71.5 147t100 119l113 -96q-61 -92 -83.5 -169.5t-22.5 -178.5v-124h-205z" />
    <glyph glyph-name="uni0124" unicode="&#x124;" horiz-adv-x="2080" 
d="M272 0v2048h187v-939h1162v939h187v-2048h-187v941h-1162v-941h-187zM1286 2227l-239 289l-239 -289h-174v13l338 403h150l338 -403v-13h-174z" />
    <glyph glyph-name="uni0125" unicode="&#x125;" horiz-adv-x="1643" 
d="M413 960v-960h-178v2048h178v-753h16q54 119 167.5 190t287.5 71q156 0 274 -64t184 -189t66 -308v-995h-179v984q0 190 -105.5 299.5t-284.5 109.5q-123 0 -219 -52t-151.5 -149.5t-55.5 -231.5zM564 2224l-239 289l-239 -289h-174v13l338 403h150l338 -403v-13h-174z
" />
    <glyph glyph-name="uni0126" unicode="&#x126;" horiz-adv-x="2157" 
d="M2009 1572v-160h-1861v160h1861zM312 0v2048h187v-939h1162v939h187v-2048h-187v941h-1162v-941h-187z" />
    <glyph glyph-name="uni0127" unicode="&#x127;" horiz-adv-x="1643" 
d="M413 960v-960h-178v2048h178v-753h16q54 119 167.5 190t287.5 71q156 0 274 -64t184 -189t66 -308v-995h-179v984q0 190 -105.5 299.5t-284.5 109.5q-123 0 -219 -52t-151.5 -149.5t-55.5 -231.5zM-95 1729v144h840v-144h-840z" />
    <glyph glyph-name="uni0128" unicode="&#x128;" horiz-adv-x="1160" 
d="M674 2048v-2048h-187v2048h187zM242 2260l-144 8q5 133 88 218t203 85q61 0 107 -21.5t86.5 -49t83 -48.5t96.5 -21q61 0 106.5 44t51.5 109l141 -16q-7 -134 -90.5 -214.5t-200.5 -80.5q-67 0 -112.5 21.5t-82 49t-78 48.5t-100.5 21q-64 0 -107.5 -44t-47.5 -109z" />
    <glyph glyph-name="uni0129" unicode="&#x129;" horiz-adv-x="731" 
d="M277 0v1536h179v-1536h-179zM30 1748l-144 8q5 133 88 218t203 85q61 0 107 -21.5t86.5 -49t83 -48.5t96.5 -21q61 0 106.5 44t51.5 109l141 -16q-7 -134 -90.5 -214.5t-200.5 -80.5q-67 0 -112.5 21.5t-82 49t-78 48.5t-100.5 21q-64 0 -107.5 -44t-47.5 -109z" />
    <glyph glyph-name="uni012A" unicode="&#x12a;" horiz-adv-x="731" 
d="M459 2048v-2048h-187v2048h187zM784 2515v-155h-837v155h837z" />
    <glyph glyph-name="uni012B" unicode="&#x12b;" horiz-adv-x="653" 
d="M237 0v1536h179v-1536h-179zM746 2003v-155h-837v155h837z" />
    <glyph glyph-name="uni012C" unicode="&#x12c;" horiz-adv-x="731" 
d="M459 2048v-2048h-187v2048h187zM549 2560h168q0 -143 -94.5 -232t-257.5 -89q-161 0 -255 89t-94 232h168q0 -78 42.5 -131.5t138.5 -53.5t140 53.5t44 131.5z" />
    <glyph glyph-name="uni012D" unicode="&#x12d;" horiz-adv-x="653" 
d="M237 0v1536h179v-1536h-179zM512 2048h168q0 -143 -94.5 -232t-257.5 -89q-161 0 -255 89t-94 232h168q0 -78 42.5 -131.5t138.5 -53.5t140 53.5t44 131.5z" />
    <glyph glyph-name="uni012E" unicode="&#x12e;" horiz-adv-x="731" 
d="M459 2048v-2048h-187v2048h187zM317 -603q-116 0 -192 65t-76 189q0 74 33.5 144t103 135.5t179.5 125.5l94 -56q-95 -78 -161.5 -157t-66.5 -170q0 -60 30.5 -90.5t95.5 -30.5q45 0 79.5 12.5t60.5 28.5l23 -134q-36 -25 -86.5 -43.5t-116.5 -18.5z" />
    <glyph glyph-name="uni012F" unicode="&#x12f;" horiz-adv-x="629" 
d="M244 0v1536h179v-1536h-179zM282 -603q-117 0 -192.5 65t-75.5 189q0 74 33 144t103 135.5t180 125.5l93 -56q-94 -78 -161 -157t-67 -170q0 -60 30.5 -90.5t96.5 -30.5q44 0 78.5 12.5t60.5 28.5l23 -134q-36 -25 -86 -43.5t-116 -18.5zM317 1800q-54 0 -93.5 37.5
t-39.5 90.5t39.5 90.5t93.5 37.5q55 0 94.5 -37.5t39.5 -90.5t-39.5 -90.5t-94.5 -37.5z" />
    <glyph glyph-name="uni0130" unicode="&#x130;" horiz-adv-x="731" 
d="M459 2048v-2048h-187v2048h187zM365 2312q-54 0 -93.5 37.5t-39.5 90.5t39.5 90.5t93.5 37.5q55 0 94.5 -37.5t39.5 -90.5t-39.5 -90.5t-94.5 -37.5z" />
    <glyph glyph-name="uni0131" unicode="&#x131;" horiz-adv-x="653" 
d="M237 0v1536h179v-1536h-179z" />
    <glyph glyph-name="uni0132" unicode="&#x132;" horiz-adv-x="2237" 
d="M459 2048v-2048h-187v2048h187zM1779 2048h187v-1477q-1 -200 -72 -333.5t-196 -199.5t-287 -66q-159 0 -284 59t-196.5 166t-71.5 251h184q0 -91 48 -160.5t131.5 -108.5t188.5 -39q109 0 191.5 46t129.5 141.5t47 243.5v1477z" />
    <glyph glyph-name="uni0133" unicode="&#x133;" horiz-adv-x="1307" 
d="M237 0v1536h179v-1536h-179zM328 1800q-55 0 -94 37.5t-39 90.5t39 90.5t94 37.5t94 -37.5t39 -90.5t-39 -90.5t-94 -37.5zM890 1536h179v-1685q0 -131 -48.5 -226.5t-140.5 -148t-222 -52.5h-20t-22 1l2 167h19h19q110 0 172 68t62 191v1685zM978 1800q-54 0 -93.5 37.5
t-39.5 90.5t39.5 90.5t93.5 37.5q55 0 94.5 -37.5t39.5 -90.5t-39.5 -90.5t-94.5 -37.5z" />
    <glyph glyph-name="uni0134" unicode="&#x134;" horiz-adv-x="1507" 
d="M1048 2048h187v-1477q-1 -200 -72 -333.5t-196 -199.5t-287 -66q-159 0 -284 59t-196.5 166t-71.5 251h184q0 -91 48 -160.5t131.5 -108.5t188.5 -39q109 0 191.5 46t129.5 141.5t47 243.5v1477zM1380 2224l-239 289l-239 -289h-174v13l338 403h150l338 -403v-13h-174z
" />
    <glyph glyph-name="uni0135" unicode="&#x135;" horiz-adv-x="653" 
d="M237 1536h179v-1685q0 -131 -48.5 -226.5t-140.5 -148t-222 -52.5h-20t-22 1l2 167h19h19q110 0 172 68t62 191v1685zM564 1712l-239 289l-239 -289h-174v13l338 403h150l338 -403v-13h-174z" />
    <glyph glyph-name="uni0136" unicode="&#x136;" horiz-adv-x="1803" 
d="M272 0v2048h187v-1103h18l1000 1103h246l-875 -947l871 -1101h-228l-759 971l-273 -306v-665h-187zM691 -680l119 518h185l-164 -518h-140z" />
    <glyph glyph-name="uni0137" unicode="&#x137;" horiz-adv-x="1479" 
d="M397 580l-2 233h40l720 723h225l-711 -712l-16 -3zM235 0v2048h178v-2048h-178zM1192 0l-624 789l128 123l724 -912h-228zM562 -680l119 518h185l-164 -518h-140z" />
    <glyph glyph-name="uni0138" unicode="&#x138;" horiz-adv-x="1711" 
d="M452 1536v-1536h-205v1536h205zM1453 1536l-764 -850l-312 1l-29 178h249l606 671h250zM1195 0l-641 698l142 136l761 -834h-262z" />
    <glyph glyph-name="uni0139" unicode="&#x139;" horiz-adv-x="1584" 
d="M272 0v2048h187v-1880h976v-168h-1163zM282 2261l256 454h211l-307 -454h-160z" />
    <glyph glyph-name="uni013A" unicode="&#x13a;" horiz-adv-x="648" 
d="M413 2048v-2048h-178v2048h178zM239 2261l256 454h211l-307 -454h-160z" />
    <glyph glyph-name="uni013B" unicode="&#x13b;" horiz-adv-x="1584" 
d="M272 0v2048h187v-1880h976v-168h-1163zM640 -680l119 518h185l-164 -518h-140z" />
    <glyph glyph-name="uni013C" unicode="&#x13c;" horiz-adv-x="648" 
d="M413 2048v-2048h-178v2048h178zM111 -680l119 518h185l-164 -518h-140z" />
    <glyph glyph-name="uni013D" unicode="&#x13d;" horiz-adv-x="1579" 
d="M272 0v2048h187v-1880h976v-168h-1163zM836 1626v518h184l-52 -518h-132z" />
    <glyph glyph-name="uni013E" unicode="&#x13e;" horiz-adv-x="775" 
d="M413 2048v-2048h-178v2048h178zM607 1626v518h184l-52 -518h-132z" />
    <glyph glyph-name="uni013F" unicode="&#x13f;" horiz-adv-x="1568" 
d="M269 0v2048h187v-1880h976v-168h-1163zM949 996q-54 0 -93.5 37.5t-39.5 90.5t39.5 90.5t93.5 37.5q55 0 94.5 -37.5t39.5 -90.5t-39.5 -90.5t-94.5 -37.5z" />
    <glyph glyph-name="uni0140" unicode="&#x140;" horiz-adv-x="798" 
d="M409 2048v-2048h-178v2048h178zM674 997q-54 0 -93.5 37.5t-39.5 90.5t39.5 90.5t93.5 37.5q55 0 94.5 -37.5t39.5 -90.5t-39.5 -90.5t-94.5 -37.5z" />
    <glyph glyph-name="uni0141" unicode="&#x141;" horiz-adv-x="1562" 
d="M813 1248v-142l-773 -256v143zM243 0v2048h186v-1880h976v-168h-1162z" />
    <glyph glyph-name="uni0142" unicode="&#x142;" horiz-adv-x="631" 
d="M631 1255v-141l-632 -255v141zM404 2048v-2048h-179v2048h179z" />
    <glyph glyph-name="uni0143" unicode="&#x143;" horiz-adv-x="2139" 
d="M1867 2048v-2048h-182l-1210 1715h-16v-1715h-187v2048h181l1214 -1717h16v1717h184zM986 2261l256 454h211l-307 -454h-160z" />
    <glyph glyph-name="uni0144" unicode="&#x144;" horiz-adv-x="1632" 
d="M413 960v-960h-178v1536h173v-241h16q54 118 168.5 189.5t283.5 71.5q155 0 272.5 -64.5t183 -189.5t65.5 -307v-995h-178v984q0 189 -105.5 299t-282.5 110q-121 0 -215 -52t-148.5 -149.5t-54.5 -231.5zM734 1749l256 454h211l-307 -454h-160z" />
    <glyph glyph-name="uni0145" unicode="&#x145;" horiz-adv-x="2139" 
d="M1867 2048v-2048h-182l-1210 1715h-16v-1715h-187v2048h181l1214 -1717h16v1717h184zM856 -680l119 518h185l-164 -518h-140z" />
    <glyph glyph-name="uni0146" unicode="&#x146;" horiz-adv-x="1632" 
d="M413 960v-960h-178v1536h173v-241h16q54 118 168.5 189.5t283.5 71.5q155 0 272.5 -64.5t183 -189.5t65.5 -307v-995h-178v984q0 189 -105.5 299t-282.5 110q-121 0 -215 -52t-148.5 -149.5t-54.5 -231.5zM603 -680l119 518h185l-164 -518h-140z" />
    <glyph glyph-name="uni0147" unicode="&#x147;" horiz-adv-x="2139" 
d="M1867 2048v-2048h-182l-1210 1715h-16v-1715h-187v2048h181l1214 -1717h16v1717h184zM830 2658l239 -290l239 290h174v-14l-338 -402h-150l-338 402v14h174z" />
    <glyph glyph-name="uni0148" unicode="&#x148;" horiz-adv-x="1632" 
d="M413 960v-960h-178v1536h173v-241h16q54 118 168.5 189.5t283.5 71.5q155 0 272.5 -64.5t183 -189.5t65.5 -307v-995h-178v984q0 189 -105.5 299t-282.5 110q-121 0 -215 -52t-148.5 -149.5t-54.5 -231.5zM578 2146l239 -290l239 290h174v-14l-338 -402h-150l-338 402v14
h174z" />
    <glyph glyph-name="uni014A" unicode="&#x14a;" horiz-adv-x="2139" 
d="M1685 0h182v-187q0 -124 -47.5 -211t-129.5 -132t-186 -45q-31 0 -62.5 2t-54.5 9v157q15 -3 34.5 -5.5t40.5 -2.5q100 0 161.5 52.5t61.5 178.5v184zM1867 2048v-2048h-182l-1210 1715h-16v-1715h-187v2048h181l1214 -1717h16v1717h184z" />
    <glyph glyph-name="uni014B" unicode="&#x14b;" horiz-adv-x="1605" 
d="M1219 0h178v-188q0 -125 -46 -211.5t-126.5 -131.5t-184.5 -45q-34 0 -67 2.5t-57 11.5v153q17 -4 38 -7t45 -3q99 0 159.5 52t60.5 179v188zM413 960v-960h-178v1536h173v-241h16q54 118 168.5 189.5t283.5 71.5q155 0 272.5 -64.5t183 -189.5t65.5 -307v-995h-178v984
q0 189 -105.5 299t-282.5 110q-121 0 -215 -52t-148.5 -149.5t-54.5 -231.5z" />
    <glyph glyph-name="uni014C" unicode="&#x14c;" horiz-adv-x="2131" 
d="M1951 1024q0 -320 -114 -556.5t-313.5 -366t-458.5 -129.5t-458.5 129.5t-313 366t-113.5 556.5t113.5 556.5t313.5 366t458 129.5q259 0 458.5 -129.5t313.5 -366t114 -556.5zM1769 1024q0 275 -92 471.5t-251 300.5t-361 104q-201 0 -360 -104t-251.5 -300t-92.5 -472
q0 -275 92 -471t251 -300.5t361 -104.5t361.5 104t251.5 300.5t91 471.5zM1484 2515v-155h-837v155h837z" />
    <glyph glyph-name="uni014D" unicode="&#x14d;" horiz-adv-x="1664" 
d="M832 -32q-199 0 -351.5 101t-238.5 279.5t-86 412.5q0 236 86 415.5t238.5 280t351.5 100.5t351 -101t238.5 -280t86.5 -415q0 -234 -86 -412.5t-238.5 -279.5t-351.5 -101zM832 131q160 0 271 86t168.5 229t57.5 315t-57.5 316t-168.5 231t-271 87q-159 0 -270.5 -87
t-169 -231t-57.5 -316t57.5 -315t168.5 -229t271 -86zM1250 2003v-155h-837v155h837z" />
    <glyph glyph-name="uni014E" unicode="&#x14e;" horiz-adv-x="2131" 
d="M1951 1024q0 -320 -114 -556.5t-313.5 -366t-458.5 -129.5t-458.5 129.5t-313 366t-113.5 556.5t113.5 556.5t313.5 366t458 129.5q259 0 458.5 -129.5t313.5 -366t114 -556.5zM1769 1024q0 275 -92 471.5t-251 300.5t-361 104q-201 0 -360 -104t-251.5 -300t-92.5 -472
q0 -275 92 -471t251 -300.5t361 -104.5t361.5 104t251.5 300.5t91 471.5zM1249 2560h168q0 -143 -94.5 -232t-257.5 -89q-161 0 -255 89t-94 232h168q0 -78 42.5 -131.5t138.5 -53.5t140 53.5t44 131.5z" />
    <glyph glyph-name="uni014F" unicode="&#x14f;" horiz-adv-x="1664" 
d="M832 -32q-199 0 -351.5 101t-238.5 279.5t-86 412.5q0 236 86 415.5t238.5 280t351.5 100.5t351 -101t238.5 -280t86.5 -415q0 -234 -86 -412.5t-238.5 -279.5t-351.5 -101zM832 131q160 0 271 86t168.5 229t57.5 315t-57.5 316t-168.5 231t-271 87q-159 0 -270.5 -87
t-169 -231t-57.5 -316t57.5 -315t168.5 -229t271 -86zM1016 2048h168q0 -143 -94.5 -232t-257.5 -89q-161 0 -255 89t-94 232h168q0 -78 42.5 -131.5t138.5 -53.5t140 53.5t44 131.5z" />
    <glyph glyph-name="uni0150" unicode="&#x150;" horiz-adv-x="2131" 
d="M1951 1024q0 -320 -114 -556.5t-313.5 -366t-458.5 -129.5t-458.5 129.5t-313 366t-113.5 556.5t113.5 556.5t313.5 366t458 129.5q259 0 458.5 -129.5t313.5 -366t114 -556.5zM1769 1024q0 275 -92 471.5t-251 300.5t-361 104q-201 0 -360 -104t-251.5 -300t-92.5 -472
q0 -275 92 -471t251 -300.5t361 -104.5t361.5 104t251.5 300.5t91 471.5zM1122 2213l325 427h203l-368 -427h-160zM749 2213l243 427h200l-296 -427h-147z" />
    <glyph glyph-name="uni0151" unicode="&#x151;" horiz-adv-x="1664" 
d="M832 -32q-199 0 -351.5 101t-238.5 279.5t-86 412.5q0 236 86 415.5t238.5 280t351.5 100.5t351 -101t238.5 -280t86.5 -415q0 -234 -86 -412.5t-238.5 -279.5t-351.5 -101zM832 131q160 0 271 86t168.5 229t57.5 315t-57.5 316t-168.5 231t-271 87q-159 0 -270.5 -87
t-169 -231t-57.5 -316t57.5 -315t168.5 -229t271 -86zM889 1701l325 427h203l-368 -427h-160zM516 1701l243 427h200l-296 -427h-147z" />
    <glyph glyph-name="uni0152" unicode="&#x152;" horiz-adv-x="2655" 
d="M1065 0q-264 0 -463.5 129t-310.5 359.5t-111 535.5q0 307 111.5 537.5t310.5 358.5t463 128h1379v-168h-1001v-771h938v-168h-938v-773h1021v-168h-1399zM1256 168v1712h-191q-209 0 -367.5 -106.5t-247.5 -299.5t-89 -450q0 -255 88.5 -447.5t247 -300.5t368.5 -108
h191z" />
    <glyph glyph-name="uni0153" unicode="&#x153;" horiz-adv-x="2801" 
d="M831 -32q-199 0 -351.5 101t-238.5 279.5t-86 412.5q0 236 86 415.5t238.5 280t351.5 100.5t351 -101t238.5 -280t86.5 -415q0 -234 -86 -412.5t-238.5 -279.5t-351.5 -101zM831 131q160 0 271 86t168.5 229t57.5 315t-57.5 316t-168.5 231t-271 87q-159 0 -270.5 -87
t-169 -231t-57.5 -316t57.5 -315t168.5 -229t271 -86zM2029 -32q-215 0 -372 100.5t-242.5 279t-85.5 411.5q0 232 85.5 412.5t237 283t350.5 102.5q125 0 241 -45.5t208.5 -139t146.5 -235t54 -334.5v-88h-1200v157h1018q0 148 -59.5 266.5t-165 187.5t-243.5 69
q-146 0 -257 -78t-173.5 -206t-63.5 -280v-94q0 -183 63.5 -319.5t180.5 -211.5t277 -75q109 0 191.5 34t139 91.5t85.5 126.5l169 -55q-35 -97 -114.5 -179t-198 -131.5t-272.5 -49.5z" />
    <glyph glyph-name="uni0154" unicode="&#x154;" horiz-adv-x="1777" 
d="M272 0v2048h661q218 0 364.5 -78.5t221 -217t74.5 -317.5t-74.5 -316t-220.5 -214t-362 -77h-563v171h558q160 0 266.5 53t159 151t52.5 232t-53 234.5t-159.5 155.5t-268.5 55h-469v-1880h-187zM1175 924l504 -924h-216l-499 924h211zM795 2261l256 454h211l-307 -454
h-160z" />
    <glyph glyph-name="uni0155" unicode="&#x155;" horiz-adv-x="1004" 
d="M235 0v1536h173v-236h13q46 116 160.5 187.5t259.5 71.5q22 0 49 -1t45 -2v-181q-12 2 -42 6t-65 4q-120 0 -213.5 -50.5t-147.5 -139.5t-54 -203v-992h-178zM499 1749l256 454h211l-307 -454h-160z" />
    <glyph glyph-name="uni0156" unicode="&#x156;" horiz-adv-x="1777" 
d="M272 0v2048h661q218 0 364.5 -78.5t221 -217t74.5 -317.5t-74.5 -316t-220.5 -214t-362 -77h-563v171h558q160 0 266.5 53t159 151t52.5 232t-53 234.5t-159.5 155.5t-268.5 55h-469v-1880h-187zM1175 924l504 -924h-216l-499 924h211zM699 -680l119 518h185l-164 -518
h-140z" />
    <glyph glyph-name="uni0157" unicode="&#x157;" horiz-adv-x="1004" 
d="M235 0v1536h173v-236h13q46 116 160.5 187.5t259.5 71.5q22 0 49 -1t45 -2v-181q-12 2 -42 6t-65 4q-120 0 -213.5 -50.5t-147.5 -139.5t-54 -203v-992h-178zM110 -680l119 518h185l-164 -518h-140z" />
    <glyph glyph-name="uni0158" unicode="&#x158;" horiz-adv-x="1777" 
d="M272 0v2048h661q218 0 364.5 -78.5t221 -217t74.5 -317.5t-74.5 -316t-220.5 -214t-362 -77h-563v171h558q160 0 266.5 53t159 151t52.5 232t-53 234.5t-159.5 155.5t-268.5 55h-469v-1880h-187zM1175 924l504 -924h-216l-499 924h211zM640 2658l239 -290l239 290h174
v-14l-338 -402h-150l-338 402v14h174z" />
    <glyph glyph-name="uni0159" unicode="&#x159;" horiz-adv-x="1004" 
d="M235 0v1536h173v-236h13q46 116 160.5 187.5t259.5 71.5q22 0 49 -1t45 -2v-181q-12 2 -42 6t-65 4q-120 0 -213.5 -50.5t-147.5 -139.5t-54 -203v-992h-178zM344 2146l239 -290l239 290h174v-14l-338 -402h-150l-338 402v14h174z" />
    <glyph glyph-name="uni015A" unicode="&#x15a;" horiz-adv-x="1772" 
d="M1384 1536q-17 171 -151 272t-337 101q-143 0 -251.5 -49t-170 -135.5t-61.5 -196.5q0 -81 35 -142t94.5 -104.5t132 -74.5t146.5 -52l216 -62q98 -27 196 -69t179.5 -105.5t131 -155t49.5 -219.5q0 -164 -85 -295t-244 -207.5t-381 -76.5q-209 0 -363 69.5t-242 192.5
t-99 285h192q10 -121 80 -205t182 -127.5t250 -43.5q153 0 272.5 51.5t188 144t68.5 215.5q0 104 -54 174.5t-150.5 118.5t-223.5 85l-245 72q-241 72 -374 199t-133 324q0 165 88.5 290.5t240 196t340.5 70.5q191 0 338 -70t233.5 -192.5t92.5 -278.5h-181zM802 2261
l256 454h211l-307 -454h-160z" />
    <glyph glyph-name="uni015B" unicode="&#x15b;" horiz-adv-x="1444" 
d="M1267 1199l-163 -46q-24 69 -68 125t-114.5 89t-174.5 33q-156 0 -256 -74t-100 -191q0 -99 68.5 -160.5t211.5 -97.5l232 -57q193 -47 289.5 -149t96.5 -256q0 -130 -72 -231t-200.5 -158.5t-297.5 -57.5q-225 0 -371 101.5t-187 293.5l171 42q33 -137 129.5 -207
t254.5 -70q177 0 283 79.5t106 199.5q0 93 -62 156.5t-188 93.5l-251 60q-200 48 -296 152t-96 258q0 127 69 223.5t190 151.5t276 55q211 0 337.5 -95.5t182.5 -262.5zM661 1749l256 454h211l-307 -454h-160z" />
    <glyph glyph-name="uni015C" unicode="&#x15c;" horiz-adv-x="1772" 
d="M1384 1536q-17 171 -151 272t-337 101q-143 0 -251.5 -49t-170 -135.5t-61.5 -196.5q0 -81 35 -142t94.5 -104.5t132 -74.5t146.5 -52l216 -62q98 -27 196 -69t179.5 -105.5t131 -155t49.5 -219.5q0 -164 -85 -295t-244 -207.5t-381 -76.5q-209 0 -363 69.5t-242 192.5
t-99 285h192q10 -121 80 -205t182 -127.5t250 -43.5q153 0 272.5 51.5t188 144t68.5 215.5q0 104 -54 174.5t-150.5 118.5t-223.5 85l-245 72q-241 72 -374 199t-133 324q0 165 88.5 290.5t240 196t340.5 70.5q191 0 338 -70t233.5 -192.5t92.5 -278.5h-181zM1124 2224
l-239 289l-239 -289h-174v13l338 403h150l338 -403v-13h-174z" />
    <glyph glyph-name="uni015D" unicode="&#x15d;" horiz-adv-x="1444" 
d="M1267 1199l-163 -46q-24 69 -68 125t-114.5 89t-174.5 33q-156 0 -256 -74t-100 -191q0 -99 68.5 -160.5t211.5 -97.5l232 -57q193 -47 289.5 -149t96.5 -256q0 -130 -72 -231t-200.5 -158.5t-297.5 -57.5q-225 0 -371 101.5t-187 293.5l171 42q33 -137 129.5 -207
t254.5 -70q177 0 283 79.5t106 199.5q0 93 -62 156.5t-188 93.5l-251 60q-200 48 -296 152t-96 258q0 127 69 223.5t190 151.5t276 55q211 0 337.5 -95.5t182.5 -262.5zM983 1712l-239 289l-239 -289h-174v13l338 403h150l338 -403v-13h-174z" />
    <glyph glyph-name="uni015E" unicode="&#x15e;" horiz-adv-x="1772" 
d="M1384 1536q-17 171 -151 272t-337 101q-143 0 -251.5 -49t-170 -135.5t-61.5 -196.5q0 -81 35 -142t94.5 -104.5t132 -74.5t146.5 -52l216 -62q98 -27 196 -69t179.5 -105.5t131 -155t49.5 -219.5q0 -164 -85 -295t-244 -207.5t-381 -76.5q-209 0 -363 69.5t-242 192.5
t-99 285h192q10 -121 80 -205t182 -127.5t250 -43.5q153 0 272.5 51.5t188 144t68.5 215.5q0 104 -54 174.5t-150.5 118.5t-223.5 85l-245 72q-241 72 -374 199t-133 324q0 165 88.5 290.5t240 196t340.5 70.5q191 0 338 -70t233.5 -192.5t92.5 -278.5h-181zM808 8h152
l-15 -80q86 -13 146.5 -69.5t61.5 -165.5q-1 -121 -94.5 -192t-275.5 -73l-6 125q99 2 156 33.5t57 101.5q0 75 -52.5 106t-165.5 37z" />
    <glyph glyph-name="uni015F" unicode="&#x15f;" horiz-adv-x="1444" 
d="M1267 1199l-163 -46q-24 69 -68 125t-114.5 89t-174.5 33q-156 0 -256 -74t-100 -191q0 -99 68.5 -160.5t211.5 -97.5l232 -57q193 -47 289.5 -149t96.5 -256q0 -130 -72 -231t-200.5 -158.5t-297.5 -57.5q-225 0 -371 101.5t-187 293.5l171 42q33 -137 129.5 -207
t254.5 -70q177 0 283 79.5t106 199.5q0 93 -62 156.5t-188 93.5l-251 60q-200 48 -296 152t-96 258q0 127 69 223.5t190 151.5t276 55q211 0 337.5 -95.5t182.5 -262.5zM653 8h152l-15 -80q86 -13 146.5 -69.5t61.5 -165.5q-1 -121 -94.5 -192t-275.5 -73l-6 125
q99 2 156 33.5t57 101.5q0 75 -52.5 106t-165.5 37z" />
    <glyph glyph-name="uni0160" unicode="&#x160;" horiz-adv-x="1772" 
d="M1384 1536q-17 171 -151 272t-337 101q-143 0 -251.5 -49t-170 -135.5t-61.5 -196.5q0 -81 35 -142t94.5 -104.5t132 -74.5t146.5 -52l216 -62q98 -27 196 -69t179.5 -105.5t131 -155t49.5 -219.5q0 -164 -85 -295t-244 -207.5t-381 -76.5q-209 0 -363 69.5t-242 192.5
t-99 285h192q10 -121 80 -205t182 -127.5t250 -43.5q153 0 272.5 51.5t188 144t68.5 215.5q0 104 -54 174.5t-150.5 118.5t-223.5 85l-245 72q-241 72 -374 199t-133 324q0 165 88.5 290.5t240 196t340.5 70.5q191 0 338 -70t233.5 -192.5t92.5 -278.5h-181zM646 2658
l239 -290l239 290h174v-14l-338 -402h-150l-338 402v14h174z" />
    <glyph glyph-name="uni0161" unicode="&#x161;" horiz-adv-x="1444" 
d="M1267 1199l-163 -46q-24 69 -68 125t-114.5 89t-174.5 33q-156 0 -256 -74t-100 -191q0 -99 68.5 -160.5t211.5 -97.5l232 -57q193 -47 289.5 -149t96.5 -256q0 -130 -72 -231t-200.5 -158.5t-297.5 -57.5q-225 0 -371 101.5t-187 293.5l171 42q33 -137 129.5 -207
t254.5 -70q177 0 283 79.5t106 199.5q0 93 -62 156.5t-188 93.5l-251 60q-200 48 -296 152t-96 258q0 127 69 223.5t190 151.5t276 55q211 0 337.5 -95.5t182.5 -262.5zM505 2146l239 -290l239 290h174v-14l-338 -402h-150l-338 402v14h174z" />
    <glyph glyph-name="uni0162" unicode="&#x162;" horiz-adv-x="1781" 
d="M148 1880v168h1485v-168h-649v-1880h-187v1880h-649zM832 5h152l-15 -80q86 -13 146.5 -69.5t61.5 -165.5q-1 -121 -94.5 -192t-275.5 -73l-6 125q99 2 156 33.5t57 101.5q0 75 -52.5 106t-165.5 37z" />
    <glyph glyph-name="uni0163" unicode="&#x163;" horiz-adv-x="1009" 
d="M840 1536v-155h-733v155h733zM336 1904h179v-1503q0 -96 33 -150.5t86 -77t113 -22.5q35 0 60 4.5t44 9.5l38 -161q-26 -10 -64 -18.5t-94 -8.5q-98 0 -188.5 43t-148.5 128t-58 211v1545zM589 8h152l-15 -80q86 -13 146.5 -69.5t61.5 -165.5q-1 -121 -94.5 -192
t-275.5 -73l-6 125q99 2 156 33.5t57 101.5q0 75 -52.5 106t-165.5 37z" />
    <glyph glyph-name="uni0164" unicode="&#x164;" horiz-adv-x="1781" 
d="M148 1880v168h1485v-168h-649v-1880h-187v1880h-649zM652 2658l239 -290l239 290h174v-14l-338 -402h-150l-338 402v14h174z" />
    <glyph glyph-name="uni0165" unicode="&#x165;" horiz-adv-x="1009" 
d="M840 1536v-155h-733v155h733zM336 1904h179v-1503q0 -96 33 -150.5t86 -77t113 -22.5q35 0 60 4.5t44 9.5l38 -161q-26 -10 -64 -18.5t-94 -8.5q-98 0 -188.5 43t-148.5 128t-58 211v1545zM693 1726v518h184l-52 -518h-132z" />
    <glyph glyph-name="uni0166" unicode="&#x166;" horiz-adv-x="1781" 
d="M148 1880v168h1485v-168h-649v-1880h-187v1880h-649zM471 984v144h840v-144h-840z" />
    <glyph glyph-name="uni0167" unicode="&#x167;" horiz-adv-x="1009" 
d="M97 881v144h752v-144h-752zM840 1536v-155h-733v155h733zM336 1904h179v-1503q0 -96 33 -150.5t86 -77t113 -22.5q35 0 60 4.5t44 9.5l38 -161q-26 -10 -64 -18.5t-94 -8.5q-98 0 -188.5 43t-148.5 128t-58 211v1545z" />
    <glyph glyph-name="uni0168" unicode="&#x168;" horiz-adv-x="2096" 
d="M1637 2048h187v-1356q0 -209 -98 -373.5t-272.5 -259t-405.5 -94.5q-230 0 -405 95t-273 259t-98 373v1356h187v-1343q0 -163 73 -290.5t205.5 -200.5t310.5 -73t311 73t205.5 200.5t72.5 290.5v1343zM710 2260l-144 8q5 133 88 218t203 85q61 0 107 -21.5t86.5 -49
t83 -48.5t96.5 -21q61 0 106.5 44t51.5 109l141 -16q-7 -134 -90.5 -214.5t-200.5 -80.5q-67 0 -112.5 21.5t-82 49t-78 48.5t-100.5 21q-64 0 -107.5 -44t-47.5 -109z" />
    <glyph glyph-name="uni0169" unicode="&#x169;" horiz-adv-x="1624" 
d="M1211 587v949h178v-1536h-178v255h-14q-54 -118 -171 -196.5t-286 -78.5q-147 0 -261 64.5t-179 189.5t-65 307v995h178v-984q0 -180 106 -289.5t272 -109.5q104 0 200 50t158 146.5t62 237.5zM476 1748l-144 8q5 133 88 218t203 85q61 0 107 -21.5t86.5 -49t83 -48.5
t96.5 -21q61 0 106.5 44t51.5 109l141 -16q-7 -134 -90.5 -214.5t-200.5 -80.5q-67 0 -112.5 21.5t-82 49t-78 48.5t-100.5 21q-64 0 -107.5 -44t-47.5 -109z" />
    <glyph glyph-name="uni016A" unicode="&#x16a;" horiz-adv-x="2096" 
d="M1637 2048h187v-1356q0 -209 -98 -373.5t-272.5 -259t-405.5 -94.5q-230 0 -405 95t-273 259t-98 373v1356h187v-1343q0 -163 73 -290.5t205.5 -200.5t310.5 -73t311 73t205.5 200.5t72.5 290.5v1343zM1466 2515v-155h-837v155h837z" />
    <glyph glyph-name="uni016B" unicode="&#x16b;" horiz-adv-x="1624" 
d="M1211 587v949h178v-1536h-178v255h-14q-54 -118 -171 -196.5t-286 -78.5q-147 0 -261 64.5t-179 189.5t-65 307v995h178v-984q0 -180 106 -289.5t272 -109.5q104 0 200 50t158 146.5t62 237.5zM1232 2003v-155h-837v155h837z" />
    <glyph glyph-name="uni016C" unicode="&#x16c;" horiz-adv-x="2096" 
d="M1637 2048h187v-1356q0 -209 -98 -373.5t-272.5 -259t-405.5 -94.5q-230 0 -405 95t-273 259t-98 373v1356h187v-1343q0 -163 73 -290.5t205.5 -200.5t310.5 -73t311 73t205.5 200.5t72.5 290.5v1343zM1232 2560h168q0 -143 -94.5 -232t-257.5 -89q-161 0 -255 89
t-94 232h168q0 -78 42.5 -131.5t138.5 -53.5t140 53.5t44 131.5z" />
    <glyph glyph-name="uni016D" unicode="&#x16d;" horiz-adv-x="1624" 
d="M1211 587v949h178v-1536h-178v255h-14q-54 -118 -171 -196.5t-286 -78.5q-147 0 -261 64.5t-179 189.5t-65 307v995h178v-984q0 -180 106 -289.5t272 -109.5q104 0 200 50t158 146.5t62 237.5zM997 2048h168q0 -143 -94.5 -232t-257.5 -89q-161 0 -255 89t-94 232h168
q0 -78 42.5 -131.5t138.5 -53.5t140 53.5t44 131.5z" />
    <glyph glyph-name="uni016E" unicode="&#x16e;" horiz-adv-x="2096" 
d="M1637 2048h187v-1356q0 -209 -98 -373.5t-272.5 -259t-405.5 -94.5q-230 0 -405 95t-273 259t-98 373v1356h187v-1343q0 -163 73 -290.5t205.5 -200.5t310.5 -73t311 73t205.5 200.5t72.5 290.5v1343zM1048 2175q-111 0 -190 78.5t-79 190.5q0 75 36 136t97.5 97
t135.5 36q75 0 136 -36t97.5 -97t36.5 -136q0 -74 -36.5 -135.5t-97.5 -97.5t-136 -36zM1049 2292q64 0 107 44.5t43 107.5q0 64 -43.5 108t-107.5 44t-107 -44.5t-43 -107.5q0 -64 43 -108t108 -44z" />
    <glyph glyph-name="uni016F" unicode="&#x16f;" horiz-adv-x="1624" 
d="M1211 587v949h178v-1536h-178v255h-14q-54 -118 -171 -196.5t-286 -78.5q-147 0 -261 64.5t-179 189.5t-65 307v995h178v-984q0 -180 106 -289.5t272 -109.5q104 0 200 50t158 146.5t62 237.5zM813 1715q-89 0 -161 40t-114.5 108.5t-42.5 153.5q0 86 42.5 156.5
t114.5 112.5t161 42q90 0 161.5 -42t113 -112.5t41.5 -156.5q0 -85 -41.5 -153.5t-113 -108.5t-161.5 -40zM813 1837q79 0 131 55t52 125q0 73 -52 129.5t-131 56.5t-130.5 -56.5t-51.5 -129.5q0 -71 52 -125.5t130 -54.5z" />
    <glyph glyph-name="uni0170" unicode="&#x170;" horiz-adv-x="2096" 
d="M1637 2048h187v-1356q0 -209 -98 -373.5t-272.5 -259t-405.5 -94.5q-230 0 -405 95t-273 259t-98 373v1356h187v-1343q0 -163 73 -290.5t205.5 -200.5t310.5 -73t311 73t205.5 200.5t72.5 290.5v1343zM1105 2213l325 427h203l-368 -427h-160zM732 2213l243 427h200
l-296 -427h-147z" />
    <glyph glyph-name="uni0171" unicode="&#x171;" horiz-adv-x="1624" 
d="M1211 587v949h178v-1536h-178v255h-14q-54 -118 -171 -196.5t-286 -78.5q-147 0 -261 64.5t-179 189.5t-65 307v995h178v-984q0 -180 106 -289.5t272 -109.5q104 0 200 50t158 146.5t62 237.5zM870 1701l325 427h203l-368 -427h-160zM497 1701l243 427h200l-296 -427
h-147z" />
    <glyph glyph-name="uni0172" unicode="&#x172;" horiz-adv-x="2096" 
d="M1637 2048h187v-1356q0 -209 -98 -373.5t-272.5 -259t-405.5 -94.5q-230 0 -405 95t-273 259t-98 373v1356h187v-1343q0 -163 73 -290.5t205.5 -200.5t310.5 -73t311 73t205.5 200.5t72.5 290.5v1343zM1066 -600q-116 0 -192 65t-76 189q0 74 33.5 144t103 135.5
t179.5 125.5l94 -56q-95 -78 -161.5 -157t-66.5 -170q0 -60 30.5 -90.5t95.5 -30.5q45 0 79.5 12.5t60.5 28.5l23 -134q-36 -25 -86.5 -43.5t-116.5 -18.5z" />
    <glyph glyph-name="uni0173" unicode="&#x173;" horiz-adv-x="1624" 
d="M1211 587v949h178v-1536h-178v255h-14q-54 -118 -171 -196.5t-286 -78.5q-147 0 -261 64.5t-179 189.5t-65 307v995h178v-984q0 -180 106 -289.5t272 -109.5q104 0 200 50t158 146.5t62 237.5zM1248 -603q-116 0 -192 65t-76 189q0 74 33.5 144t103 135.5t179.5 125.5
l94 -56q-95 -78 -161.5 -157t-66.5 -170q0 -60 30.5 -90.5t95.5 -30.5q45 0 79.5 12.5t60.5 28.5l23 -134q-36 -25 -86.5 -43.5t-116.5 -18.5z" />
    <glyph glyph-name="uni0174" unicode="&#x174;" horiz-adv-x="2619" 
d="M628 0l-561 2048h190l464 -1761h16l464 1761h216l464 -1761h16l464 1761h191l-561 -2048h-200l-475 1737h-13l-475 -1737h-200zM1548 2224l-239 289l-239 -289h-174v13l338 403h150l338 -403v-13h-174z" />
    <glyph glyph-name="uni0175" unicode="&#x175;" horiz-adv-x="2267" 
d="M576 0l-464 1536h188l364 -1267h13l363 1267h189l360 -1264h14l364 1264h188l-464 -1536h-184l-364 1259h-19l-364 -1259h-184zM1372 1712l-239 289l-239 -289h-174v13l338 403h150l338 -403v-13h-174z" />
    <glyph glyph-name="uni0176" unicode="&#x176;" horiz-adv-x="1824" 
d="M80 2048h216l607 -972h18l607 972h216l-739 -1161v-887h-186v887zM1151 2224l-239 289l-239 -289h-174v13l338 403h150l338 -403v-13h-174z" />
    <glyph glyph-name="uni0177" unicode="&#x177;" horiz-adv-x="1536" 
d="M359 -576q-53 0 -99 10t-73 22l48 157q91 -28 162 -20.5t126 64t98 172.5l56 156l-565 1551h193l456 -1301h14l456 1301h193l-650 -1779q-41 -111 -101 -185.5t-138.5 -111t-175.5 -36.5zM1007 1712l-239 289l-239 -289h-174v13l338 403h150l338 -403v-13h-174z" />
    <glyph glyph-name="uni0178" unicode="&#x178;" horiz-adv-x="1824" 
d="M80 2048h216l607 -972h18l607 972h216l-739 -1161v-887h-186v887zM656 2312q-51 0 -89.5 38.5t-38.5 89.5q0 55 38.5 91.5t89.5 36.5q55 0 91.5 -36.5t36.5 -91.5q0 -51 -36.5 -89.5t-91.5 -38.5zM1168 2312q-51 0 -89.5 38.5t-38.5 89.5q0 55 38.5 91.5t89.5 36.5
q55 0 91.5 -36.5t36.5 -91.5q0 -51 -36.5 -89.5t-91.5 -38.5z" />
    <glyph glyph-name="uni0179" unicode="&#x179;" horiz-adv-x="1741" 
d="M191 0v141l1137 1739h-1143v168h1366v-141l-1138 -1739h1148v-168h-1370zM787 2261l256 454h211l-307 -454h-160z" />
    <glyph glyph-name="uni017A" unicode="&#x17a;" horiz-adv-x="1493" 
d="M187 0v141l888 1214v13h-850v168h1079v-147l-872 -1208v-13h904v-168h-1149zM662 1749l256 454h211l-307 -454h-160z" />
    <glyph glyph-name="uni017B" unicode="&#x17b;" horiz-adv-x="1741" 
d="M191 0v141l1137 1739h-1143v168h1366v-141l-1138 -1739h1148v-168h-1370zM870 2312q-54 0 -93.5 37.5t-39.5 90.5t39.5 90.5t93.5 37.5q55 0 94.5 -37.5t39.5 -90.5t-39.5 -90.5t-94.5 -37.5z" />
    <glyph glyph-name="uni017C" unicode="&#x17c;" horiz-adv-x="1493" 
d="M187 0v141l888 1214v13h-850v168h1079v-147l-872 -1208v-13h904v-168h-1149zM745 1800q-54 0 -93.5 37.5t-39.5 90.5t39.5 90.5t93.5 37.5q55 0 94.5 -37.5t39.5 -90.5t-39.5 -90.5t-94.5 -37.5z" />
    <glyph glyph-name="uni017D" unicode="&#x17d;" horiz-adv-x="1741" 
d="M191 0v141l1137 1739h-1143v168h1366v-141l-1138 -1739h1148v-168h-1370zM632 2658l239 -290l239 290h174v-14l-338 -402h-150l-338 402v14h174z" />
    <glyph glyph-name="uni017E" unicode="&#x17e;" horiz-adv-x="1493" 
d="M187 0v141l888 1214v13h-850v168h1079v-147l-872 -1208v-13h904v-168h-1149zM507 2145l238 -289l239 289h175v-13l-339 -403h-149l-339 403v13h175z" />
    <glyph glyph-name="uni017F" unicode="&#x17f;" horiz-adv-x="707" 
d="M256 0h-205v1691q0 144 54.5 244.5t152.5 153t229 52.5q42 0 85.5 -6.5t84.5 -17.5l-26 -156q-26 6 -54 9t-58 3q-122 0 -192.5 -74.5t-70.5 -207.5v-1691z" />
    <glyph glyph-name="uni0180" unicode="&#x180;" horiz-adv-x="1727" 
d="M272 0v2048h179v-805h16q30 69 86.5 142t149 122.5t233.5 49.5q189 0 332 -99.5t223 -278t80 -415.5q0 -238 -79.5 -417t-222 -279t-330.5 -100q-140 0 -233.5 50t-150.5 123.5t-88 143.5h-22v-285h-173zM448 767q0 -186 55.5 -329.5t160 -225t253.5 -81.5
q153 0 259 84.5t161 228.5t55 323q0 177 -54.5 319t-160.5 225.5t-260 83.5q-150 0 -254.5 -80.5t-159.5 -222t-55 -325.5zM-57 1688v144h840v-144h-840z" />
    <glyph glyph-name="uni0181" unicode="&#x181;" horiz-adv-x="2200" 
d="M704 1880h-189q-79 0 -120.5 -32.5t-56 -89t-14.5 -130.5v-63h-176v115q0 106 42 189t122.5 131t198.5 48h193v-168zM649 0v2048h691q200 0 333.5 -70t200.5 -191t67 -275q0 -128 -43 -219t-116.5 -147t-165.5 -81v-16q100 -7 193 -69.5t152.5 -174.5t59.5 -268
q0 -155 -68.5 -276.5t-211 -191t-362.5 -69.5h-730zM836 168h543q237 0 350.5 105t113.5 264q0 117 -57 212.5t-159.5 151.5t-239.5 56h-551v-789zM836 1123h521q122 0 213 50t142 138t51 201q0 163 -106 265.5t-317 102.5h-504v-757z" />
    <glyph glyph-name="uni0182" unicode="&#x182;" horiz-adv-x="1840" 
d="M272 0v2048h1195v-168h-1008v-732h581q205 0 348.5 -69t219.5 -194.5t76 -296.5q0 -176 -75.5 -308t-219 -206t-349.5 -74h-768zM459 165h581q147 0 249.5 57.5t156.5 154t54 215.5q0 165 -121.5 276.5t-338.5 111.5h-581v-815z" />
    <glyph glyph-name="uni0183" unicode="&#x183;" horiz-adv-x="1727" 
d="M1381 2048v-168h-930v-637h16q30 69 86.5 142t149 122.5t233.5 49.5q189 0 332 -99.5t223 -278t80 -415.5q0 -238 -79.5 -417t-222 -279t-330.5 -100q-140 0 -233.5 50t-150.5 123.5t-88 143.5h-22v-285h-173v2048h1109zM448 767q0 -186 55.5 -329.5t160 -225
t253.5 -81.5q153 0 259 84.5t161 228.5t55 323q0 177 -54.5 319t-160.5 225.5t-260 83.5q-150 0 -254.5 -80.5t-159.5 -222t-55 -325.5z" />
    <glyph glyph-name="uni0184" unicode="&#x184;" horiz-adv-x="1933" 
d="M688 2048v-168h-662v168h662zM636 1148h633q205 0 349 -69t219.5 -194.5t75.5 -296.5q0 -176 -75.5 -308t-219 -206t-349.5 -74h-768v2048h187v-1883h581q147 0 250 57.5t156.5 154t53.5 215.5q1 165 -121 276.5t-339 111.5h-633v168z" />
    <glyph glyph-name="uni0185" unicode="&#x185;" horiz-adv-x="1692" 
d="M300 2112h63v-672h-63l-197 296v81zM424 1243h93q30 69 86.5 142t149 122.5t233.5 49.5q189 0 332 -99.5t223 -278t80 -415.5q0 -238 -79.5 -417t-222 -279t-330.5 -100q-140 0 -233.5 50t-150.5 123.5t-88 143.5h-93v958zM1442 767q0 177 -54.5 319t-160.5 225.5
t-260 83.5q-150 0 -254.5 -80.5t-159.5 -222t-55 -325.5q0 -186 55.5 -329.5t160 -225t253.5 -81.5q153 0 259 84.5t161 228.5t55 323zM322 2048h179v-885l-60 -384l54 -459v-320h-173v2048z" />
    <glyph glyph-name="uni0186" unicode="&#x186;" horiz-adv-x="2044" 
d="M168 640h188q22 -105 76 -194.5t136 -156.5t186 -104t225 -37q194 0 353.5 101t255 296.5t95.5 478.5q0 285 -95.5 480t-255 295.5t-353.5 100.5q-121 0 -225 -37t-186 -103.5t-136 -156t-76 -195.5h-188q26 141 94 262.5t173.5 212.5t243 142t300.5 51q258 0 458 -129.5
t313.5 -365.5t113.5 -557t-113.5 -557t-313.5 -365.5t-458 -129.5q-163 0 -300.5 50.5t-243 142t-173.5 213t-94 262.5z" />
    <glyph glyph-name="uni0187" unicode="&#x187;" horiz-adv-x="2110" 
d="M1876 1408h-179v284q0 122 44.5 205t122.5 125.5t179 42.5q29 0 58 -1t50 -8v-155q-14 3 -31.5 5t-36.5 2q-63 0 -109.5 -20t-72 -67.5t-25.5 -128.5v-284zM1876 1408h-188q-21 105 -75.5 194.5t-136.5 156.5t-186 104t-225 37q-194 0 -353.5 -101t-255 -296.5
t-95.5 -478.5q0 -285 95.5 -480t255 -295.5t353.5 -100.5q121 0 225 37t186 103.5t136.5 156.5t75.5 195h188q-25 -141 -93.5 -262.5t-174 -212.5t-242.5 -142t-301 -51q-258 0 -458 129.5t-313.5 365.5t-113.5 557t113.5 557t313.5 365.5t458 129.5q164 0 301 -50.5
t242.5 -142t174 -212.5t93.5 -263z" />
    <glyph glyph-name="uni0188" unicode="&#x188;" horiz-adv-x="1690" 
d="M1420 1080h-179v212q0 123 45 206t124 125t183 42q30 0 63.5 -1.5t59.5 -8.5v-154q-19 3 -41 5t-42 2q-100 0 -156.5 -47t-56.5 -169v-212zM835 -32q-206 0 -358.5 103t-236.5 282t-84 408q0 231 85.5 411t237.5 282.5t353 102.5q154 0 279 -59.5t206.5 -167
t102.5 -250.5h-180q-28 130 -134.5 222.5t-270.5 92.5q-147 0 -260 -79.5t-176.5 -221t-63.5 -327.5q0 -187 62 -330.5t174.5 -224.5t263.5 -81q102 0 186.5 38.5t142 109.5t77.5 169h180q-20 -139 -98.5 -247.5t-203 -170.5t-284.5 -62z" />
    <glyph glyph-name="uni0189" unicode="&#x189;" horiz-adv-x="2020" 
d="M872 0h-496v168h485q264 0 442 104t267 297t89 460q-1 265 -87.5 456t-256 293t-418.5 102h-529v168h540q293 0 501.5 -122t319.5 -350t111 -547q0 -322 -113.5 -552.5t-330 -353.5t-524.5 -123zM459 2048v-2048h-187v2048h187zM-55 979v144h840v-144h-840z" />
    <glyph glyph-name="uni018A" unicode="&#x18a;" horiz-adv-x="2416" 
d="M148 1565v115q0 106 42 189t122.5 131t198.5 48h200v-168h-196q-79 0 -120.5 -32.5t-56 -89t-14.5 -130.5v-63h-176zM1268 0h-600v2048h636q293 0 501.5 -122t319.5 -350t111 -547q0 -322 -113.5 -552.5t-330 -353.5t-524.5 -123zM855 168h402q264 0 442 104t267 297
t89 460q-1 265 -87.5 456t-256 293t-418.5 102h-438v-1712z" />
    <glyph glyph-name="uni018B" unicode="&#x18b;" horiz-adv-x="1738" 
d="M1575 0h-765q-205 0 -349.5 74t-221 206t-76.5 308q0 171 76.5 298t221.5 197t349 70h555v690h-982v176h1192v-2019zM1365 173v804h-555q-219 0 -326.5 -110t-106.5 -275q0 -119 46.5 -213.5t142.5 -150t244 -55.5h555z" />
    <glyph glyph-name="uni018C" unicode="&#x18c;" horiz-adv-x="1727" 
d="M345 2048h963v-168h-963v168zM1455 0h-174v285h-21q-31 -70 -88 -143.5t-150.5 -123.5t-233.5 -50q-188 0 -330.5 100t-222 279t-79.5 417q0 237 79.5 415.5t222.5 278t333 99.5q140 0 233 -49.5t149 -122.5t87 -142h16v805h179v-2048zM1279 767q0 184 -55 325.5
t-160 222t-255 80.5q-154 0 -259.5 -83.5t-160 -225.5t-54.5 -319q0 -179 55 -323t160.5 -228.5t258.5 -84.5q149 0 254 81.5t160.5 225t55.5 329.5z" />
    <glyph glyph-name="uni018D" unicode="&#x18d;" horiz-adv-x="1451" 
d="M1177 -516h-927v163l649 -1q-41 47 -103.5 111t-132 132t-132.5 127q-137 125 -237.5 245t-155 246t-54.5 268v22q0 229 77.5 400t221 265.5t342.5 94.5q200 0 344.5 -95t222 -265.5t77.5 -399.5v-22q0 -176 -74.5 -321t-211.5 -236t-326 -107q-26 -2 -44 -1t-45 4
q61 -58 126.5 -120t131.5 -126t130 -129t121 -131v-124zM1164 775v22q0 176 -49 309.5t-146.5 208t-243.5 74.5q-144 0 -241.5 -74.5t-147 -208t-49.5 -309.5v-22q0 -158 72.5 -285t185.5 -223q43 -13 81.5 -18t79.5 -5q149 0 251 71.5t154.5 192t52.5 267.5z" />
    <glyph glyph-name="uni018E" unicode="&#x18e;" horiz-adv-x="1671" 
d="M1399 2048v-2048h-1188v168h1001v771h-939v168h939v773h-1021v168h1208z" />
    <glyph glyph-name="uni018F" unicode="&#x18f;" horiz-adv-x="1992" 
d="M976 -28q-238 0 -416 112.5t-276.5 324t-98.5 507.5v125h1496l-1 -165h-1284v-31q0 -220 71.5 -376t201.5 -238.5t304 -82.5q198 0 337.5 99t213 278.5t73.5 419.5v130q0 195 -44.5 347.5t-130.5 258.5t-213 161t-292 55q-77 0 -156.5 -12t-161 -37.5t-165.5 -66.5
l-54 158q52 32 115.5 57.5t134.5 43t146.5 27t151.5 9.5q272 0 469.5 -121.5t305 -345.5t107.5 -534v-130q0 -285 -102 -504.5t-289.5 -344t-442.5 -124.5z" />
    <glyph glyph-name="uni0190" unicode="&#x190;" horiz-adv-x="1728" 
d="M1077 1005h-268q-185 11 -322 78t-212 180.5t-75 265.5q0 167 87 290t237 190t341 67q195 0 341.5 -67.5t230.5 -191t91 -289.5h-211q-10 164 -126 268t-326 104q-145 0 -246.5 -48t-154.5 -133.5t-53 -196.5q0 -106 52 -194.5t156.5 -141.5t264.5 -53h193v-128z
M805 1089h272v-129h-193q-161 0 -274 -48t-172 -140t-59 -222q0 -132 61.5 -222t170 -136.5t248.5 -46.5q237 0 363.5 114.5t136.5 281.5h210q-6 -187 -103 -314t-255.5 -191t-351.5 -64q-192 0 -349 63.5t-251 189t-94 312.5q0 251 168.5 391.5t471.5 160.5z" />
    <glyph glyph-name="uni0191" unicode="&#x191;" horiz-adv-x="1629" 
d="M251 0h186v-187q0 -93 -25.5 -165t-76.5 -122t-126 -75.5t-174 -25.5q-16 0 -29 2t-48 9v157q15 -3 34 -5.5t41 -2.5q100 0 159 52.5t59 178.5v184zM251 0v2048h1185v-168h-999v-771h906v-168h-906v-941h-186z" />
    <glyph glyph-name="uni0192" unicode="&#x192;" horiz-adv-x="1004" 
d="M849 1484v-157h-278v-1468q0 -208 -110.5 -321.5t-297.5 -113.5q-40 0 -74.5 4.5t-70.5 16.5l20 164q23 -9 63 -13t62 -4q92 0 157 71t65 196v1468h-256v157h256v205q0 216 115.5 333.5t286.5 117.5q50 0 106.5 -9t91.5 -22l-46 -164q-22 7 -48.5 11.5t-60.5 4.5
q-118 0 -188.5 -69.5t-70.5 -202.5v-205h278z" />
    <glyph glyph-name="uni0193" unicode="&#x193;" horiz-adv-x="2118" 
d="M1879 1408h-190l8 221q4 92 28 162t67.5 117t108 71t150.5 24q31 0 64 -1.5t60 -8.5v-155q-19 3 -41 5t-43 2q-66 0 -113.5 -20t-73 -67t-25.5 -129v-221zM1689 1408q-28 102 -82 191.5t-133.5 157t-183 105.5t-230.5 38q-200 0 -358 -104t-249.5 -300t-91.5 -472
q0 -275 92 -471t252.5 -300.5t367.5 -104.5q189 0 334 84t226.5 240t79.5 371l60 -19h-656v168h778v-168q0 -262 -106 -453t-291 -295t-425 -104q-268 0 -469 129.5t-312.5 366t-111.5 556.5q0 241 64 435t181.5 332t278.5 211.5t356 73.5q168 0 307.5 -53t246 -145.5
t175 -213t92.5 -256.5h-192z" />
    <glyph glyph-name="uni0194" unicode="&#x194;" horiz-adv-x="1669" 
d="M-1 2048h202l728 -1757q74 -178 125.5 -292.5t78.5 -187t27 -124.5q0 -92 -39 -158t-112 -101.5t-174 -35.5q-152 0 -239 78.5t-87 216.5q0 33 9 70.5t27 84.5t44.5 108.5t62 143t80.5 187.5l738 1767h202l-802 -1902q-57 -136 -95.5 -225t-57.5 -145t-19 -92
q0 -51 37.5 -86t99.5 -35q60 0 97.5 36t38.5 85q0 36 -18 91t-55.5 145.5t-97.5 234.5z" />
    <glyph glyph-name="uni0195" unicode="&#x195;" horiz-adv-x="2637" 
d="M235 0v2048h178v-753h16q55 120 168.5 190.5t286.5 70.5q156 0 274 -64t184 -189t66 -308v-256h-179v245q0 190 -105.5 299.5t-284.5 109.5q-123 0 -219 -52t-151.5 -149.5t-55.5 -231.5v-960h-178zM1712 -27q-142 0 -251 67t-170.5 207.5t-61.5 359.5v190h179v-190
q0 -186 45 -289t117 -144t153 -41q147 0 260 124.5t177 395t64 706.5v177h179v-185q0 -477 -87 -782t-242 -450.5t-362 -145.5z" />
    <glyph glyph-name="uni0196" unicode="&#x196;" horiz-adv-x="692" 
d="M235 2048h178v-1699q0 -119 39.5 -161t127.5 -32q30 2 44.5 5.5t26.5 6.5l37 -156q-21 -6 -55 -12t-70 -7q-160 -10 -244 70.5t-84 243.5v1741z" />
    <glyph glyph-name="uni0197" unicode="&#x197;" horiz-adv-x="731" 
d="M459 2048v-2048h-187v2048h187zM-55 984v144h840v-144h-840z" />
    <glyph glyph-name="uni0198" unicode="&#x198;" horiz-adv-x="1876" 
d="M272 0v2048h187v-1103h18l899 991q70 78 154 109.5t168.5 18t153.5 -68.5l-81 -136q-68 45 -135.5 34t-139.5 -89l-648 -703l904 -1101h-229l-791 971l-273 -306v-665h-187z" />
    <glyph glyph-name="uni0199" unicode="&#x199;" horiz-adv-x="1458" 
d="M1181 0l-579 749l-189 -198v-551h-178v1636h178v-828h16l688 728h231l-627 -658l678 -878h-218zM413 1539h-178v164q0 92 25 161.5t72 117t111.5 71t142.5 23.5q31 0 64 -1.5t59 -8.5v-155q-18 3 -40 5.5t-43 2.5q-99 0 -156 -47t-57 -169v-164z" />
    <glyph glyph-name="uni019A" unicode="&#x19a;" horiz-adv-x="648" 
d="M413 2048v-2048h-178v2048h178zM-96 984v144h840v-144h-840z" />
    <glyph glyph-name="uni019B" unicode="&#x19b;" horiz-adv-x="1747" 
d="M895 1959v-180l-632 -256v178zM811 1208l-432 -1208h-226l569 1528l141 -29zM431 2076q141 -1 215 -61t120 -182l575 -1513q24 -64 45.5 -99.5t45.5 -49.5t56 -14q12 0 26.5 1t26.5 3l14 -168q-16 -6 -43 -10t-56 -4q-73 0 -126.5 19.5t-97.5 78.5t-89 176l-420 1104
l-150 390q-35 90 -80 125.5t-110 36.5q-17 0 -39.5 -2t-40.5 -6l-8 158q22 7 63 12t73 5z" />
    <glyph glyph-name="uni019C" unicode="&#x19c;" horiz-adv-x="2477" 
d="M2044 299v1749h203v-2048h-192zM2057 629l100 3q4 -190 -54.5 -338.5t-178 -233.5t-300.5 -85q-149 0 -258 61.5t-169 193.5t-60 343v1475h203v-1475q0 -154 42 -247.5t112.5 -135.5t158.5 -42q138 0 227.5 63t133 172t43.5 246zM1153 629l100 3q4 -190 -55 -338.5
t-179.5 -233.5t-301.5 -85q-150 0 -259 62t-168 194t-59 342v1475h205v-1475q0 -154 41 -247.5t111.5 -135.5t158.5 -42q137 0 227 63t134.5 172t44.5 246z" />
    <glyph glyph-name="uni019D" unicode="&#x19d;" horiz-adv-x="2125" 
d="M259 0h186v-187q0 -93 -27 -165t-76 -122t-115 -75.5t-144 -25.5q-32 0 -63 2t-54 9v157q15 -3 34 -5.5t41 -2.5q100 0 159 52.5t59 178.5v184zM1853 2048v-2048h-181l-1211 1715h-16v-1715h-186v2048h181l1213 -1717h16v1717h184z" />
    <glyph glyph-name="uni019E" unicode="&#x19e;" horiz-adv-x="1632" 
d="M413 960v-960h-178v1536h173v-241h16q54 118 168.5 189.5t283.5 71.5q155 0 272.5 -64.5t183 -189.5t65.5 -307v-1571h-178v1560q0 188 -105 298.5t-283 110.5q-120 0 -214.5 -52t-149 -149.5t-54.5 -231.5z" />
    <glyph glyph-name="uni019F" unicode="&#x19f;" horiz-adv-x="2131" 
d="M1951 1024q0 -320 -114 -556.5t-313.5 -366t-458.5 -129.5t-458.5 129.5t-313 366t-113.5 556.5t113.5 556.5t313.5 366t458 129.5q259 0 458.5 -129.5t313.5 -366t114 -556.5zM1769 1024q0 275 -92 471.5t-251 300.5t-361 104q-201 0 -360 -104t-251.5 -300t-92.5 -472
q0 -275 92 -471t251 -300.5t361 -104.5t361.5 104t251.5 300.5t91 471.5zM1804 1108v-168h-1477v168h1477z" />
    <glyph glyph-name="uni01A0" unicode="&#x1a0;" horiz-adv-x="2143" 
d="M1896 2199h179q0 -243 -116 -374t-355 -144v152q156 14 224 104.5t68 261.5zM1951 1024q0 -320 -114 -556.5t-313.5 -366t-458.5 -129.5t-458.5 129.5t-313 366t-113.5 556.5t113.5 556.5t313.5 366t458 129.5q259 0 458.5 -129.5t313.5 -366t114 -556.5zM1769 1024
q0 275 -92 471.5t-251 300.5t-361 104q-201 0 -360 -104t-251.5 -300t-92.5 -472q0 -275 92 -471t251 -300.5t361 -104.5t361.5 104t251.5 300.5t91 471.5z" />
    <glyph glyph-name="uni01A1" unicode="&#x1a1;" horiz-adv-x="1652" 
d="M1466 1661h168q0 -212 -89.5 -333.5t-309.5 -125.5v133q97 3 146.5 42.5t67 111.5t17.5 172zM832 -32q-199 0 -351.5 101t-238.5 279.5t-86 412.5q0 236 86 415.5t238.5 280t351.5 100.5t351 -101t238.5 -280t86.5 -415q0 -234 -86 -412.5t-238.5 -279.5t-351.5 -101z
M832 131q160 0 271 86t168.5 229t57.5 315t-57.5 316t-168.5 231t-271 87q-159 0 -270.5 -87t-169 -231t-57.5 -316t57.5 -315t168.5 -229t271 -86z" />
    <glyph glyph-name="uni01A2" unicode="&#x1a2;" horiz-adv-x="2346" 
d="M1657 1056v-795q-59 -92 -156.5 -156.5t-220.5 -98.5t-260 -34q-190 0 -344.5 68t-265.5 194.5t-170.5 302.5t-59.5 392v134l211 3v-137q0 -240 77.5 -416t221 -272t342.5 -96q130 0 243.5 44t179.5 125v742h202zM1657 1794v-807h-202v746q-64 78 -176.5 122.5
t-245.5 44.5q-150 0 -269 -54t-202 -157.5t-127 -250.5t-44 -333v-146h-211v146q0 220 60 399t172.5 307t270 196.5t353.5 68.5q131 0 250 -34.5t215.5 -97.5t155.5 -150zM2074 2048v-2624h-205v2423l-311 -154v182l344 173h172z" />
    <glyph glyph-name="uni01A3" unicode="&#x1a3;" horiz-adv-x="1670" 
d="M741 139q68 0 123 18t102 49v631h205v-685q-54 -55 -120.5 -96t-145.5 -63t-172 -22q-204 0 -347.5 102t-219 273t-75.5 378v39q0 227 74.5 407t219.5 283.5t356 103.5q90 0 168 -20.5t144 -60t118 -93.5v-713h-205v652q-45 32 -102.5 49.5t-127.5 17.5q-154 0 -251 -84
t-143 -226.5t-46 -315.5v-39q0 -180 55.5 -311t155.5 -202.5t234 -71.5zM1580 1536v-2112h-203v1855l-299 -184v258l329 183h173z" />
    <glyph glyph-name="uni01A4" unicode="&#x1a4;" horiz-adv-x="2116" 
d="M324 1565h-176v115q0 106 42 189t122.5 131t198.5 48h762q218 0 364.5 -83.5t221 -226.5t74.5 -322t-74 -322.5t-220 -227t-363 -83.5h-477v-783h-187v1880h-97q-79 0 -120.5 -32.5t-56 -89t-14.5 -130.5v-63zM799 951h472q161 0 267 60.5t158.5 165.5t52.5 239
t-52.5 239t-159 165t-269.5 60h-469v-929z" />
    <glyph glyph-name="uni01A5" unicode="&#x1a5;" horiz-adv-x="1694" 
d="M405 1536h-173q0 178 90 264.5t256 86.5q38 0 71 -3t52 -7v-155q-21 4 -43 5.5t-40 1.5q-106 0 -159.5 -44.5t-53.5 -148.5zM235 -576v2112h173v-293h21q32 69 88 141.5t148.5 122.5t233.5 50q190 0 332.5 -99.5t222 -278t79.5 -415.5q0 -238 -79.5 -417t-222 -279
t-330.5 -100q-139 0 -232.5 50t-151 123.5t-88.5 143.5h-16v-861h-178zM411 767q0 -186 55.5 -329.5t160 -225t253.5 -81.5q153 0 258.5 84.5t161 228.5t55.5 323q0 177 -54.5 319t-160.5 225.5t-260 83.5q-150 0 -255 -80.5t-159.5 -222t-54.5 -325.5z" />
    <glyph glyph-name="uni01A6" unicode="&#x1a6;" horiz-adv-x="1975" 
d="M151 1908v280h214v-280h-214zM151 2049h646q209 0 358 -70.5t228 -204t79 -322.5q0 -141 -54.5 -255.5t-156 -194.5t-242.5 -117l-56 -21h-642v173h510q132 0 229 54t149.5 147.5t51.5 213.5q0 127 -50.5 221.5t-151.5 147t-252 52.5h-432v-1873h-214v2049zM1589 -501
l-755 1414h224l757 -1401v-13h-226z" />
    <glyph glyph-name="uni01A7" unicode="&#x1a7;" horiz-adv-x="1772" 
d="M388 1536h-181q7 156 93 278.5t233 192.5t338 70q189 0 340.5 -70.5t240 -196t88.5 -290.5q0 -197 -133 -324t-374 -199l-245 -72q-127 -37 -223.5 -85t-150.5 -118.5t-54 -174.5q0 -123 68.5 -215.5t188 -144t272.5 -51.5q138 0 250.5 43.5t182 127.5t79.5 205h192
q-11 -162 -99 -285t-242 -192.5t-363 -69.5q-222 0 -381 76.5t-244 207.5t-85 295q0 128 49.5 219.5t131 155t180 105.5t195.5 69l216 62q99 28 193 74t154.5 118.5t60.5 180.5q0 110 -61.5 196.5t-170 135.5t-251.5 49q-135 0 -241 -45.5t-171 -129.5t-76 -198z" />
    <glyph glyph-name="uni01A8" unicode="&#x1a8;" horiz-adv-x="1444" 
d="M179 1199q56 167 182 262.5t338 95.5q154 0 275 -55t190 -151.5t69 -223.5q0 -154 -95.5 -258t-296.5 -152l-250 -60q-251 -60 -251 -250q0 -120 106.5 -199.5t282.5 -79.5q158 0 255 70t129 207l171 -42q-40 -192 -186 -293.5t-371 -101.5q-169 0 -298 57.5t-201 158.5
t-72 231q0 154 97 256t290 149l232 57q143 36 211.5 97.5t68.5 160.5q0 117 -100.5 191t-255.5 74q-156 0 -238.5 -71.5t-119.5 -175.5z" />
    <glyph glyph-name="uni01A9" unicode="&#x1a9;" horiz-adv-x="1737" 
d="M1572 176v-176h-1335l7 176h1328zM1511 2019v-176h-1310v176h1310zM1097 1005v-29l-815 -976h-126v157l715 833l-715 869v160h127z" />
    <glyph glyph-name="uni01AA" unicode="&#x1aa;" horiz-adv-x="1431" 
d="M809 1619l206 91v-1849q0 -144 45 -204t135 -60q19 0 44 3.5t45 8.5v-165q-26 -10 -65.5 -15t-71.5 -5q-170 0 -254 111t-84 326v1758zM147 1709q0 120 58.5 218t157 156t218.5 58q119 0 217.5 -58t157 -156t59.5 -218q0 -119 -58.5 -218t-157.5 -157.5t-218 -58.5
q-120 0 -218.5 58.5t-157 157.5t-58.5 218zM581 1464q67 0 121 29.5t86 85t32 132.5q0 114 -69.5 181t-169.5 67q-68 0 -123 -30.5t-87 -86t-32 -131.5q0 -115 70 -181t172 -66z" />
    <glyph glyph-name="uni01AB" unicode="&#x1ab;" horiz-adv-x="1015" 
d="M716 136l179 40v-363q0 -187 -101 -287.5t-257 -100.5q-34 0 -67 2.5t-57 11.5v153q17 -4 38.5 -6.5t43.5 -2.5q67 0 116.5 22t77 73t27.5 135v323zM840 1536v-155h-733v155h733zM336 1904h179v-1503q0 -96 33 -150.5t86 -77t113 -22.5q35 0 60 4.5t44 9.5l38 -161
q-26 -10 -64 -18.5t-94 -8.5q-98 0 -188.5 43t-148.5 128t-58 211v1545z" />
    <glyph glyph-name="uni01AC" unicode="&#x1ac;" horiz-adv-x="1856" 
d="M1708 2048v-168h-649v-1880h-187v1880h-360q-72 0 -114.5 -30.5t-60.5 -84.5t-18 -124v-62h-171v104q0 166 96.5 265.5t266.5 99.5h1197z" />
    <glyph glyph-name="uni01AD" unicode="&#x1ad;" horiz-adv-x="870" 
d="M527 1537h-206v234q0 92 28 161t77 116t116.5 70t146.5 23q26 0 60.5 -4t62.5 -11v-144q-21 5 -44 7.5t-39 2.5q-66 0 -111 -21.5t-68 -70t-23 -129.5v-234zM815 1504v-157h-747v157h747zM321 1649h206v-1266q0 -127 51 -181t129 -54q31 0 63 5.5t51 9.5v-168
q-25 -8 -67 -15.5t-101 -7.5q-95 0 -170 43.5t-118.5 134.5t-43.5 233v1266z" />
    <glyph glyph-name="uni01AE" unicode="&#x1ae;" horiz-adv-x="1781" 
d="M984 0v-187q0 -127 66 -173.5t165 -46.5h72v-168h-114q-77 0 -145.5 25t-120 74t-81 121t-29.5 166v189h187zM148 1880v168h1485v-168h-649v-1880h-187v1880h-649z" />
    <glyph glyph-name="uni01AF" unicode="&#x1af;" horiz-adv-x="2389" 
d="M2065 2183h176q1 -173 -49.5 -290t-162 -180t-293.5 -72v152q128 9 200 54t100.5 128t28.5 208zM1637 2048h187v-1356q0 -209 -98 -373.5t-272.5 -259t-405.5 -94.5q-230 0 -405 95t-273 259t-98 373v1356h187v-1343q0 -163 73 -290.5t205.5 -200.5t310.5 -73t311 73
t205.5 200.5t72.5 290.5v1343z" />
    <glyph glyph-name="uni01B0" unicode="&#x1b0;" horiz-adv-x="1670" 
d="M1568 1599h160q0 -144 -37.5 -239.5t-126 -143.5t-243.5 -48v131q111 0 163.5 30.5t68 97t15.5 172.5zM1207 587v949h178v-1536h-178v255h-14q-54 -118 -171 -196.5t-286 -78.5q-147 0 -261 64.5t-179 189.5t-65 307v995h178v-984q0 -180 106 -289.5t272 -109.5
q104 0 200 50t158 146.5t62 237.5z" />
    <glyph glyph-name="uni01B1" unicode="&#x1b1;" horiz-adv-x="2128" 
d="M181 979q1 302 124.5 525t354.5 360v16h-479v168h700v-217q-142 -67 -260 -186.5t-188 -287t-70 -377.5q-1 -233 88.5 -421.5t248 -299.5t364.5 -111q155 0 283.5 64t222 177.5t144.5 264.5t51 326q1 210 -69.5 377.5t-188.5 287.5t-260 186v217h700v-168h-479v-16
q232 -135 355 -358.5t124 -526.5q0 -221 -65.5 -405t-184 -319t-279.5 -209t-354 -74q-192 0 -353.5 74t-280 209t-184 319.5t-65.5 404.5z" />
    <glyph glyph-name="uni01B2" unicode="&#x1b2;" horiz-adv-x="1741" 
d="M867 -29q-203 0 -362.5 76.5t-250.5 227t-91 374.5v1399h211v-1399q0 -255 134.5 -380t358.5 -125q227 0 363.5 126t136.5 379v994q0 138 -56.5 196t-169.5 58q-22 0 -49 -2t-50 -9v168q30 9 70.5 15.5t82.5 6.5q171 0 278.5 -111.5t107.5 -321.5v-994q0 -223 -96.5 -374
t-258.5 -227.5t-359 -76.5z" />
    <glyph glyph-name="uni01B3" unicode="&#x1b3;" horiz-adv-x="1910" 
d="M63 2048h216l606 -972h18l511 811q58 94 138 140.5t166 46.5t162 -43l-57 -147q-65 31 -132 15.5t-121 -100.5l-582 -912v-887h-187v887z" />
    <glyph glyph-name="uni01B4" unicode="&#x1b4;" horiz-adv-x="1692" 
d="M359 -576q-53 0 -99 10t-73 22l48 157q91 -28 162 -20.5t126 64t98 172.5l56 156l-565 1551h193l456 -1301h14l434 1240q41 116 93.5 208.5t128 146.5t183.5 54q64 0 120 -19.5t97 -51.5l-43 -130q-33 17 -73 29t-80 12q-91 0 -144.5 -71.5t-110.5 -233.5l-606 -1662
q-61 -167 -165.5 -250t-249.5 -83z" />
    <glyph glyph-name="uni01B5" unicode="&#x1b5;" horiz-adv-x="1741" 
d="M191 0v141l1137 1739h-1143v168h1366v-141l-1138 -1739h1148v-168h-1370zM464 973v144h840v-144h-840z" />
    <glyph glyph-name="uni01B6" unicode="&#x1b6;" horiz-adv-x="1493" 
d="M187 0v141l888 1214v13h-850v168h1079v-147l-872 -1208v-13h904v-168h-1149zM325 696v144h840v-144h-840z" />
    <glyph glyph-name="uni01B7" unicode="&#x1b7;" horiz-adv-x="1931" 
d="M148 92h189q7 -155 90 -274t220 -186.5t302 -67.5q186 0 325 87t216.5 237.5t77.5 340.5q0 208 -95 363.5t-263 243.5t-387 92h-132v160l753 791v-2h-1183v171h1434v-137l-770 -815v-16q244 -11 430.5 -122t291.5 -298.5t105 -428.5q0 -175 -56.5 -327.5t-162 -267
t-254 -179t-332.5 -64.5q-218 0 -396.5 89t-286.5 246.5t-116 363.5z" />
    <glyph glyph-name="uni01B8" unicode="&#x1b8;" horiz-adv-x="1931" 
d="M1783 92q-8 -206 -116 -363.5t-286 -246.5t-397 -89q-184 0 -333 64.5t-254.5 179t-161.5 267t-56 327.5q0 241 105 428.5t291.5 298.5t429.5 122v16l-769 815v137h1433v-171h-1182v2l753 -791v-160h-132q-218 -4 -386.5 -92t-263.5 -243.5t-95 -363.5
q0 -190 77.5 -340.5t216.5 -237.5t324 -87q166 0 302.5 67.5t220 186.5t89.5 274h190z" />
    <glyph glyph-name="uni01B9" unicode="&#x1b9;" horiz-adv-x="1741" 
d="M1547 1q-8 -166 -99 -287t-238.5 -187t-326.5 -66q-200 0 -350.5 79t-235 215t-84.5 307q0 174 85.5 307.5t233.5 212t336 87.5v13l-584 717v138h1168v-168h-909v-14l556 -680v-154h-111q-205 0 -335.5 -62.5t-193 -166t-62.5 -230.5q0 -132 61.5 -229t170.5 -150.5
t251 -53.5q131 0 236 44.5t169.5 128t71.5 199.5h190z" />
    <glyph glyph-name="uni01BA" unicode="&#x1ba;" horiz-adv-x="1473" 
d="M179 1537l1181 -1v-135l-795 -698h-103v136l603 530h-884zM324 -195q0 -119 89.5 -182.5t249.5 -63.5q102 0 189.5 33t143.5 104t63 183h203q-4 -132 -75 -243t-201.5 -178t-313.5 -67q-169 0 -293 51.5t-191 146.5t-67 226q0 116 57.5 201.5t173.5 145.5t291 99
q138 31 215.5 63.5t109 76.5t31.5 110q0 95 -83.5 143.5t-276.5 48.5h-82l12 168h70q181 0 307 -44t192 -125.5t66 -195.5q0 -118 -60 -195.5t-177.5 -128.5t-289.5 -91q-138 -31 -215 -73.5t-107.5 -96t-30.5 -116.5z" />
    <glyph glyph-name="uni01BB" unicode="&#x1bb;" horiz-adv-x="1719" 
d="M228 0v137l669 752q131 148 211 253t116.5 194t36.5 185q0 117 -54.5 204.5t-149.5 136.5t-214 49q-126 0 -220.5 -54t-146.5 -148t-52 -216h-179q0 170 78.5 301.5t215 206.5t309.5 75q171 0 304 -73.5t209 -199.5t76 -282q0 -113 -39.5 -219t-135.5 -236t-266 -318
l-508 -567v-13h1013v-168h-1273zM723 973v144h840v-144h-840z" />
    <glyph glyph-name="uni01BC" unicode="&#x1bc;" horiz-adv-x="1643" 
d="M496 2048v-168h-407v168h407zM811 -28q-171 0 -305.5 69.5t-214 191.5t-84.5 279h181q9 -163 128 -267.5t295 -104.5q137 0 244 65.5t167.5 180t60.5 258.5q-1 150 -65 264.5t-173.5 179.5t-245.5 65q-103 1 -202 -34t-165 -90l-187 24l123 995h1012v-168h-855l-82 -685
h10q68 57 165.5 93t206.5 36q181 0 325.5 -87t229 -239.5t84.5 -350.5q0 -194 -84.5 -346.5t-232 -240.5t-336.5 -88z" />
    <glyph glyph-name="uni01BD" unicode="&#x1bd;" horiz-adv-x="1395" 
d="M440 672l-178 15l91 801h872v-179h-698l-48 -410q50 43 136 73t172 33q155 3 268 -57.5t175 -176t62 -275.5q1 -150 -59.5 -267.5t-184.5 -185t-317 -67.5q-98 0 -193 28t-172 83.5t-123 137t-46 187.5l198 21q-3 -129 91 -207.5t245 -78.5q179 0 269 95.5t90 249.5
t-87 249t-249 96q-116 0 -194 -48t-120 -117zM495 1488v-179h-391v179h391z" />
    <glyph glyph-name="uni01BE" unicode="&#x1be;" horiz-adv-x="1486" 
d="M1119 395q0 74 -37 122.5t-95 86.5t-123 76.5t-123 90.5t-95 128.5t-37 191.5v750h206v-744q0 -94 36.5 -154t94.5 -101t123 -76.5t123.5 -79.5t95 -109t36.5 -166q0 -129 -71.5 -228t-199 -154.5t-296.5 -55.5q-189 0 -321 70.5t-200 183t-68 238.5h205
q3 -105 56 -177.5t139.5 -109.5t188.5 -37q112 0 193 32.5t125 90t44 131.5zM1109 1482v-157h-792v157h792z" />
    <glyph glyph-name="uni01BF" unicode="&#x1bf;" horiz-adv-x="1707" 
d="M439 1271v-1843h-206v2108h186zM385 1035l-98 -56q31 137 82 244t123.5 181.5t168.5 113.5t215 39q185 0 314.5 -91.5t197.5 -256.5t68 -384v-66q0 -208 -71 -363t-210 -270.5t-342 -203.5t-468 -163v168q281 76 478.5 182.5t302 263t104.5 384.5v69q0 159 -48 285.5
t-143.5 199.5t-238.5 73q-111 0 -194 -46.5t-142 -125.5t-99 -177z" />
    <glyph glyph-name="uni01C0" unicode="&#x1c0;" horiz-adv-x="673" 
d="M421 2060v-2060h-168v2060h168z" />
    <glyph glyph-name="uni01C1" unicode="&#x1c1;" horiz-adv-x="974" 
d="M334 2060v-2060h-168v2060h168zM708 2060v-2060h-168v2060h168z" />
    <glyph glyph-name="uni01C2" unicode="&#x1c2;" horiz-adv-x="710" 
d="M439 2060v-2060h-168v2060h168zM-68 1309v144h840v-144h-840zM-64 615v144h840v-144h-840z" />
    <glyph glyph-name="uni01C3" unicode="&#x1c3;" horiz-adv-x="768" 
d="M485 2048l-13 -1461h-176l-13 1461h202zM384 -15q-59 0 -101.5 42.5t-42.5 101.5q0 60 42.5 102t101.5 42t101.5 -42t42.5 -102q0 -39 -19.5 -72t-52 -52.5t-72.5 -19.5z" />
    <glyph glyph-name="uni01C5" unicode="&#x1c5;" horiz-adv-x="3513" 
d="M872 0h-600v2048h636q293 0 501.5 -122t319.5 -350t111 -547q0 -322 -113.5 -552.5t-330 -353.5t-524.5 -123zM459 168h402q264 0 442 104t267 297t89 460q-1 265 -87.5 456t-256 293t-418.5 102h-438v-1712zM2207 0v141l888 1214v13h-850v168h1079v-147l-872 -1208v-13
h904v-168h-1149zM2527 2145l238 -289l239 289h175v-13l-339 -403h-149l-339 403v13h175z" />
    <glyph glyph-name="uni01C6" unicode="&#x1c6;" horiz-adv-x="2955" 
d="M788 -32q-189 0 -331 100t-221.5 279t-79.5 417q0 237 79.5 415.5t222.5 278t333 99.5q140 0 233 -49.5t149 -122.5t87 -142h16v805h179v-2048h-174v285h-21q-31 -70 -88 -143.5t-150.5 -123.5t-233.5 -50zM809 131q149 0 254 81.5t160.5 225t55.5 329.5q0 184 -55 325.5
t-160 222t-255 80.5q-154 0 -259.5 -83.5t-160 -225.5t-54.5 -319q0 -179 55 -323t160.5 -228.5t258.5 -84.5zM1648 0v141l888 1214v13h-850v168h1079v-147l-872 -1208v-13h904v-168h-1149zM1968 2145l238 -289l239 289h175v-13l-339 -403h-149l-339 403v13h175z" />
    <glyph glyph-name="uni01C7" unicode="&#x1c7;" horiz-adv-x="3091" 
d="M272 0v2048h187v-1880h976v-168h-1163zM2632 2048h187v-1477q-1 -200 -72 -333.5t-196 -199.5t-287 -66q-159 0 -284 59t-196.5 166t-71.5 251h184q0 -91 48 -160.5t131.5 -108.5t188.5 -39q109 0 191.5 46t129.5 141.5t47 243.5v1477z" />
    <glyph glyph-name="uni01C8" unicode="&#x1c8;" horiz-adv-x="2237" 
d="M272 0v2048h187v-1880h976v-168h-1163zM1821 1536h179v-1685q0 -131 -48.5 -226.5t-140.5 -148t-222 -52.5h-20t-22 1l2 167h19h19q110 0 172 68t62 191v1685zM1909 1800q-54 0 -93.5 37.5t-39.5 90.5t39.5 90.5t93.5 37.5q55 0 94.5 -37.5t39.5 -90.5t-39.5 -90.5
t-94.5 -37.5z" />
    <glyph glyph-name="uni01C9" unicode="&#x1c9;" horiz-adv-x="1275" 
d="M413 2048v-2048h-178v2048h178zM892 1536h179v-1685q0 -131 -48.5 -226.5t-140.5 -148t-222 -52.5h-20t-22 1l2 167h19h19q110 0 172 68t62 191v1685zM980 1800q-54 0 -93.5 37.5t-39.5 90.5t39.5 90.5t93.5 37.5q55 0 94.5 -37.5t39.5 -90.5t-39.5 -90.5t-94.5 -37.5z
" />
    <glyph glyph-name="uni01CA" unicode="&#x1ca;" horiz-adv-x="3645" 
d="M1867 2048v-2048h-182l-1210 1715h-16v-1715h-187v2048h181l1214 -1717h16v1717h184zM3187 2048h187v-1477q-1 -200 -72 -333.5t-196 -199.5t-287 -66q-159 0 -284 59t-196.5 166t-71.5 251h184q0 -91 48 -160.5t131.5 -108.5t188.5 -39q109 0 191.5 46t129.5 141.5
t47 243.5v1477z" />
    <glyph glyph-name="uni01CB" unicode="&#x1cb;" horiz-adv-x="2761" 
d="M1867 2048v-2048h-182l-1210 1715h-16v-1715h-187v2048h181l1214 -1717h16v1717h184zM2345 1536h179v-1685q0 -131 -48.5 -226.5t-140.5 -148t-222 -52.5h-20t-22 1l2 167h19h19q110 0 172 68t62 191v1685zM2433 1800q-54 0 -93.5 37.5t-39.5 90.5t39.5 90.5t93.5 37.5
q55 0 94.5 -37.5t39.5 -90.5t-39.5 -90.5t-94.5 -37.5z" />
    <glyph glyph-name="uni01CC" unicode="&#x1cc;" horiz-adv-x="2285" 
d="M413 960v-960h-178v1536h173v-241h16q54 118 168.5 189.5t283.5 71.5q155 0 272.5 -64.5t183 -189.5t65.5 -307v-995h-178v984q0 189 -105.5 299t-282.5 110q-121 0 -215 -52t-148.5 -149.5t-54.5 -231.5zM1869 1536h179v-1685q0 -131 -48.5 -226.5t-140.5 -148
t-222 -52.5h-20t-22 1l2 167h19h19q110 0 172 68t62 191v1685zM1957 1800q-54 0 -93.5 37.5t-39.5 90.5t39.5 90.5t93.5 37.5q55 0 94.5 -37.5t39.5 -90.5t-39.5 -90.5t-94.5 -37.5z" />
    <glyph glyph-name="uni01CD" unicode="&#x1cd;" horiz-adv-x="1848" 
d="M275 0h-196l745 2048h200l745 -2048h-196l-642 1805h-14zM416 785h1016v-168h-1016v168zM685 2658l239 -290l239 290h174v-14l-338 -402h-150l-338 402v14h174z" />
    <glyph glyph-name="uni01CE" unicode="&#x1ce;" horiz-adv-x="1567" 
d="M664 -35q-139 0 -254 54.5t-183 158t-68 251.5q0 114 43 192t122 128t187 79t238 45q129 16 218.5 28t136.5 38t47 84v36q0 157 -93.5 247.5t-268.5 90.5q-166 0 -270.5 -73t-146.5 -172l-169 61q52 126 144 201.5t206 109t231 33.5q88 0 183.5 -23t177.5 -79.5t133 -157
t51 -254.5v-1043h-178v243h-11q-32 -68 -95 -132t-158 -105t-223 -41zM688 128q142 0 246 63t160.5 167.5t56.5 230.5v222q-20 -19 -66.5 -34t-107 -26.5t-120.5 -19.5t-108 -14q-130 -16 -222 -50t-141 -93.5t-49 -152.5q0 -140 100 -216.5t251 -76.5zM561 2146l239 -290
l239 290h174v-14l-338 -402h-150l-338 402v14h174z" />
    <glyph glyph-name="uni01CF" unicode="&#x1cf;" horiz-adv-x="731" 
d="M459 2048v-2048h-187v2048h187zM126 2658l239 -290l239 290h174v-14l-338 -402h-150l-338 402v14h174z" />
    <glyph glyph-name="uni01D0" unicode="&#x1d0;" horiz-adv-x="653" 
d="M237 0v1536h179v-1536h-179zM89 2146l239 -290l239 290h174v-14l-338 -402h-150l-338 402v14h174z" />
    <glyph glyph-name="uni01D1" unicode="&#x1d1;" horiz-adv-x="2131" 
d="M1951 1024q0 -320 -114 -556.5t-313.5 -366t-458.5 -129.5t-458.5 129.5t-313 366t-113.5 556.5t113.5 556.5t313.5 366t458 129.5q259 0 458.5 -129.5t313.5 -366t114 -556.5zM1769 1024q0 275 -92 471.5t-251 300.5t-361 104q-201 0 -360 -104t-251.5 -300t-92.5 -472
q0 -275 92 -471t251 -300.5t361 -104.5t361.5 104t251.5 300.5t91 471.5zM826 2658l239 -290l239 290h174v-14l-338 -402h-150l-338 402v14h174z" />
    <glyph glyph-name="uni01D2" unicode="&#x1d2;" horiz-adv-x="1664" 
d="M832 -32q-199 0 -351.5 101t-238.5 279.5t-86 412.5q0 236 86 415.5t238.5 280t351.5 100.5t351 -101t238.5 -280t86.5 -415q0 -234 -86 -412.5t-238.5 -279.5t-351.5 -101zM832 131q160 0 271 86t168.5 229t57.5 315t-57.5 316t-168.5 231t-271 87q-159 0 -270.5 -87
t-169 -231t-57.5 -316t57.5 -315t168.5 -229t271 -86zM593 2146l239 -290l239 290h174v-14l-338 -402h-150l-338 402v14h174z" />
    <glyph glyph-name="uni01D3" unicode="&#x1d3;" horiz-adv-x="2096" 
d="M1637 2048h187v-1356q0 -209 -98 -373.5t-272.5 -259t-405.5 -94.5q-230 0 -405 95t-273 259t-98 373v1356h187v-1343q0 -163 73 -290.5t205.5 -200.5t310.5 -73t311 73t205.5 200.5t72.5 290.5v1343zM809 2658l239 -290l239 290h174v-14l-338 -402h-150l-338 402v14h174
z" />
    <glyph glyph-name="uni01D4" unicode="&#x1d4;" horiz-adv-x="1624" 
d="M1211 587v949h178v-1536h-178v255h-14q-54 -118 -171 -196.5t-286 -78.5q-147 0 -261 64.5t-179 189.5t-65 307v995h178v-984q0 -180 106 -289.5t272 -109.5q104 0 200 50t158 146.5t62 237.5zM574 2146l239 -290l239 290h174v-14l-338 -402h-150l-338 402v14h174z" />
    <glyph glyph-name="uni01D5" unicode="&#x1d5;" horiz-adv-x="2096" 
d="M1637 2048h187v-1356q0 -209 -98 -373.5t-272.5 -259t-405.5 -94.5q-230 0 -405 95t-273 259t-98 373v1356h187v-1343q0 -163 73 -290.5t205.5 -200.5t310.5 -73t311 73t205.5 200.5t72.5 290.5v1343zM793 2312q-51 0 -89.5 38.5t-38.5 89.5q0 55 38.5 91.5t89.5 36.5
q54 0 91 -36.5t37 -91.5q0 -51 -37 -89.5t-91 -38.5zM1305 2312q-51 0 -89.5 38.5t-38.5 89.5q0 55 38.5 91.5t89.5 36.5q54 0 91 -36.5t37 -91.5q0 -51 -37 -89.5t-91 -38.5zM1468 2986v-155h-837v155h837z" />
    <glyph glyph-name="uni01D6" unicode="&#x1d6;" horiz-adv-x="1624" 
d="M1211 587v949h178v-1536h-178v255h-14q-54 -118 -171 -196.5t-286 -78.5q-147 0 -261 64.5t-179 189.5t-65 307v995h178v-984q0 -180 106 -289.5t272 -109.5q104 0 200 50t158 146.5t62 237.5zM558 1800q-51 0 -89.5 39t-38.5 89q0 55 38.5 91.5t89.5 36.5
q55 0 91.5 -36.5t36.5 -91.5q0 -50 -36.5 -89t-91.5 -39zM1070 1800q-51 0 -89.5 39t-38.5 89q0 55 38.5 91.5t89.5 36.5q55 0 91.5 -36.5t36.5 -91.5q0 -50 -36.5 -89t-91.5 -39zM1233 2474v-154h-837v154h837z" />
    <glyph glyph-name="uni01D7" unicode="&#x1d7;" horiz-adv-x="2096" 
d="M1637 2048h187v-1356q0 -209 -98 -373.5t-272.5 -259t-405.5 -94.5q-230 0 -405 95t-273 259t-98 373v1356h187v-1343q0 -163 73 -290.5t205.5 -200.5t310.5 -73t311 73t205.5 200.5t72.5 290.5v1343zM964 2624l274 288h214l-324 -288h-164zM792 2219q-51 0 -89.5 38.5
t-38.5 89.5q0 54 38.5 91t89.5 37q54 0 91 -37t37 -91q0 -51 -37 -89.5t-91 -38.5zM1304 2219q-51 0 -89.5 38.5t-38.5 89.5q0 54 38.5 91t89.5 37q54 0 91 -37t37 -91q0 -51 -37 -89.5t-91 -38.5z" />
    <glyph glyph-name="uni01D8" unicode="&#x1d8;" horiz-adv-x="1624" 
d="M1211 587v949h178v-1536h-178v255h-14q-54 -118 -171 -196.5t-286 -78.5q-147 0 -261 64.5t-179 189.5t-65 307v995h178v-984q0 -180 106 -289.5t272 -109.5q104 0 200 50t158 146.5t62 237.5zM557 1800q-50 0 -89 38.5t-39 89.5q0 55 39 91.5t89 36.5q55 0 91.5 -36.5
t36.5 -91.5q0 -51 -36.5 -89.5t-91.5 -38.5zM1069 1800q-50 0 -89 38.5t-39 89.5q0 55 39 91.5t89 36.5q55 0 91.5 -36.5t36.5 -91.5q0 -51 -36.5 -89.5t-91.5 -38.5zM730 2195l256 453h211l-307 -453h-160z" />
    <glyph glyph-name="uni01D9" unicode="&#x1d9;" horiz-adv-x="2096" 
d="M1637 2048h187v-1356q0 -209 -98 -373.5t-272.5 -259t-405.5 -94.5q-230 0 -405 95t-273 259t-98 373v1356h187v-1343q0 -163 73 -290.5t205.5 -200.5t310.5 -73t311 73t205.5 200.5t72.5 290.5v1343zM623 2406q-8 43 12.5 79.5t70.5 45.5q52 8 85.5 -15.5t42.5 -67.5
q9 -42 -12 -76.5t-72 -43.5q-53 -9 -85.5 14t-41.5 64zM1261 2405q-9 42 12 78t73 45q50 9 83.5 -14.5t41.5 -65.5q9 -40 -10.5 -77t-71.5 -46q-52 -8 -86 15t-42 65zM811 2873l233 -205l233 205h183v-18l-357 -312h-118l-354 309v21h180z" />
    <glyph glyph-name="uni01DA" unicode="&#x1da;" horiz-adv-x="1624" 
d="M1211 587v949h178v-1536h-178v255h-14q-54 -118 -171 -196.5t-286 -78.5q-147 0 -261 64.5t-179 189.5t-65 307v995h178v-984q0 -180 106 -289.5t272 -109.5q104 0 200 50t158 146.5t62 237.5zM390 1896q0 49 32 86t93 37t94.5 -36t33.5 -87t-33.5 -85.5t-94.5 -34.5
q-59 0 -92 34.5t-33 85.5zM990 1893q0 51 33.5 88.5t94.5 37.5q60 0 94 -37.5t34 -88.5q0 -48 -34 -84t-94 -36q-61 0 -94.5 36t-33.5 84zM580 2520l233 -257l233 257h183v-13l-357 -379h-118l-354 379v13h180z" />
    <glyph glyph-name="uni01DB" unicode="&#x1db;" horiz-adv-x="2096" 
d="M1637 2048h187v-1356q0 -209 -98 -373.5t-272.5 -259t-405.5 -94.5q-230 0 -405 95t-273 259t-98 373v1356h187v-1343q0 -163 73 -290.5t205.5 -200.5t310.5 -73t311 73t205.5 200.5t72.5 290.5v1343zM956 2772l177 -299h-139l-232 299h194zM644 2407q0 52 33.5 88.5
t92.5 36.5q60 0 94 -36.5t34 -88.5q0 -51 -33.5 -85.5t-93.5 -34.5q-61 0 -94 35.5t-33 84.5zM1202 2406q0 51 33.5 87t94.5 36q58 0 91.5 -36t33.5 -86q0 -49 -32.5 -86t-92.5 -37q-61 0 -94.5 36t-33.5 86z" />
    <glyph glyph-name="uni01DC" unicode="&#x1dc;" horiz-adv-x="1624" 
d="M1211 587v949h178v-1536h-178v255h-14q-54 -118 -171 -196.5t-286 -78.5q-147 0 -261 64.5t-179 189.5t-65 307v995h178v-984q0 -180 106 -289.5t272 -109.5q104 0 200 50t158 146.5t62 237.5zM431 1896q0 49 32.5 86t92.5 37q61 0 94.5 -36t33.5 -87t-33.5 -85.5
t-94.5 -34.5q-58 0 -91.5 34.5t-33.5 85.5zM951 1893q0 51 33.5 88.5t94.5 37.5t94.5 -37.5t33.5 -88.5q0 -48 -33.5 -84t-94.5 -36t-94.5 36t-33.5 84zM675 2441l258 -382h-179l-327 382h248z" />
    <glyph glyph-name="uni01DD" unicode="&#x1dd;" horiz-adv-x="1635" 
d="M779 1568q215 0 372 -100.5t242.5 -279t85.5 -411.5q0 -232 -85.5 -412.5t-237 -283t-351.5 -102.5q-124 0 -240.5 45.5t-208.5 139t-146 235.5t-54 334v88h1200v-157h-1019q0 -148 60 -266.5t165.5 -187.5t242.5 -69q148 0 258.5 78t173 206t63.5 280v94q0 184 -64 320
t-180.5 211t-276.5 75q-109 0 -192 -34t-139 -91.5t-85 -126.5l-170 55q36 97 115 179t198 131.5t273 49.5z" />
    <glyph glyph-name="uni01DE" unicode="&#x1de;" horiz-adv-x="1848" 
d="M275 0h-196l745 2048h200l745 -2048h-196l-642 1805h-14zM416 785h1016v-168h-1016v168zM669 2312q-51 0 -89.5 38.5t-38.5 89.5q0 55 38.5 91.5t89.5 36.5q54 0 91 -36.5t37 -91.5q0 -51 -37 -89.5t-91 -38.5zM1181 2312q-51 0 -89.5 38.5t-38.5 89.5q0 55 38.5 91.5
t89.5 36.5q54 0 91 -36.5t37 -91.5q0 -51 -37 -89.5t-91 -38.5zM1344 2986v-155h-837v155h837z" />
    <glyph glyph-name="uni01DF" unicode="&#x1df;" horiz-adv-x="1567" 
d="M664 -35q-139 0 -254 54.5t-183 158t-68 251.5q0 114 43 192t122 128t187 79t238 45q129 16 218.5 28t136.5 38t47 84v36q0 157 -93.5 247.5t-268.5 90.5q-166 0 -270.5 -73t-146.5 -172l-169 61q52 126 144 201.5t206 109t231 33.5q88 0 183.5 -23t177.5 -79.5t133 -157
t51 -254.5v-1043h-178v243h-11q-32 -68 -95 -132t-158 -105t-223 -41zM688 128q142 0 246 63t160.5 167.5t56.5 230.5v222q-20 -19 -66.5 -34t-107 -26.5t-120.5 -19.5t-108 -14q-130 -16 -222 -50t-141 -93.5t-49 -152.5q0 -140 100 -216.5t251 -76.5zM545 1800
q-51 0 -89.5 39t-38.5 89q0 55 38.5 91.5t89.5 36.5q55 0 91.5 -36.5t36.5 -91.5q0 -50 -36.5 -89t-91.5 -39zM1057 1800q-51 0 -89.5 39t-38.5 89q0 55 38.5 91.5t89.5 36.5q55 0 91.5 -36.5t36.5 -91.5q0 -50 -36.5 -89t-91.5 -39zM1220 2474v-154h-837v154h837z" />
    <glyph glyph-name="uni01E0" unicode="&#x1e0;" horiz-adv-x="1848" 
d="M275 0h-196l745 2048h200l745 -2048h-196l-642 1805h-14zM416 785h1016v-168h-1016v168zM924 2312q-55 0 -94.5 38t-39.5 90q0 53 39.5 90.5t94.5 37.5t94 -37.5t39 -90.5q0 -52 -39 -90t-94 -38zM1342 2986v-155h-837v155h837z" />
    <glyph glyph-name="uni01E1" unicode="&#x1e1;" horiz-adv-x="1567" 
d="M664 -35q-139 0 -254 54.5t-183 158t-68 251.5q0 114 43 192t122 128t187 79t238 45q129 16 218.5 28t136.5 38t47 84v36q0 157 -93.5 247.5t-268.5 90.5q-166 0 -270.5 -73t-146.5 -172l-169 61q52 126 144 201.5t206 109t231 33.5q88 0 183.5 -23t177.5 -79.5t133 -157
t51 -254.5v-1043h-178v243h-11q-32 -68 -95 -132t-158 -105t-223 -41zM688 128q142 0 246 63t160.5 167.5t56.5 230.5v222q-20 -19 -66.5 -34t-107 -26.5t-120.5 -19.5t-108 -14q-130 -16 -222 -50t-141 -93.5t-49 -152.5q0 -140 100 -216.5t251 -76.5zM1222 2482v-155h-838
v155h838zM803 1808q-54 0 -93.5 38t-39.5 90q0 53 39.5 90.5t93.5 37.5q55 0 94 -37.5t39 -90.5q0 -52 -39 -90t-94 -38z" />
    <glyph glyph-name="uni01E2" unicode="&#x1e2;" horiz-adv-x="2759" 
d="M79 0l1009 2048h1460v-168h-1001v-771h938v-168h-938v-773h1021v-168h-1208v1880h-165l-911 -1880h-205zM503 617v168h952v-168h-952zM2208 2515v-155h-837v155h837z" />
    <glyph glyph-name="uni01E3" unicode="&#x1e3;" horiz-adv-x="2601" 
d="M1823 -32q-247 0 -414 129t-216 336l36 731q76 182 221 287.5t346 105.5q125 0 241 -45.5t208.5 -139t146 -235t53.5 -334.5v-88h-1196v157h1015q0 148 -59.5 266t-165.5 187.5t-243 69.5q-147 0 -258 -78t-173 -206t-64 -280v-94q0 -183 64 -319.5t181 -211.5t277 -75
q109 0 191.5 34t138.5 91.5t86 126.5l169 -55q-35 -97 -114.5 -179t-198 -131.5t-272.5 -49.5zM688 128q142 0 246 63t160.5 167.5t56.5 230.5v222q-20 -19 -66.5 -34t-107 -26.5t-120.5 -19.5t-108 -14q-130 -16 -222 -50t-141 -93.5t-49 -152.5q0 -140 100 -216.5
t251 -76.5zM664 -35q-139 0 -254 54.5t-183 158t-68 251.5q0 114 43 192t122 128.5t187.5 79.5t237.5 44q129 16 218.5 28t136.5 38t47 84v36q0 157 -94 247.5t-268 90.5q-166 0 -270.5 -73t-146.5 -172l-169 61q52 126 144 201.5t206 109t231 33.5q80 0 163 -19t157.5 -62
t129 -115.5t77.5 -179.5l-62 -834h-17q-35 -119 -121 -204.5t-202.5 -131.5t-244.5 -46zM1708 2003v-155h-837v155h837z" />
    <glyph glyph-name="uni01E4" unicode="&#x1e4;" horiz-adv-x="2088" 
d="M2037 603v-155h-920v155h920zM1689 1408q-28 102 -82 191.5t-133.5 157t-183 105.5t-230.5 38q-200 0 -358 -104t-249.5 -300t-91.5 -472q0 -275 92 -471t252.5 -300.5t367.5 -104.5q189 0 334 84t226.5 240t79.5 371l60 -19h-656v168h778v-168q0 -262 -106 -453
t-291 -295t-425 -104q-268 0 -469 129.5t-312.5 366t-111.5 556.5q0 241 64 435t181.5 332t278.5 211.5t356 73.5q168 0 307.5 -53t246 -145.5t175 -213t92.5 -256.5h-192z" />
    <glyph glyph-name="uni01E5" unicode="&#x1e5;" horiz-adv-x="1692" 
d="M821 -608q-157 0 -275 40.5t-199 110.5t-126 157l146 96q33 -58 88.5 -114t145 -93t220.5 -37q204 0 329.5 102t125.5 317v346h-16q-31 -70 -89 -139.5t-151.5 -115.5t-231.5 -46q-184 0 -326.5 91t-224 260.5t-81.5 404.5q0 233 79.5 410t222.5 276t333 99
q141 0 234 -49.5t149.5 -122.5t88.5 -142h18v293h174v-1576q0 -195 -83 -321t-226 -186.5t-325 -60.5zM809 179q148 0 253 71.5t161 205.5t56 319q0 180 -55 319.5t-159.5 220t-255.5 80.5q-154 0 -260 -83t-160 -223.5t-54 -313.5q0 -176 55 -310.5t161 -210t258 -75.5z
M949 701v144h840v-144h-840z" />
    <glyph glyph-name="uni01E6" unicode="&#x1e6;" horiz-adv-x="2088" 
d="M1689 1408q-28 102 -82 191.5t-133.5 157t-183 105.5t-230.5 38q-200 0 -358 -104t-249.5 -300t-91.5 -472q0 -275 92 -471t252.5 -300.5t367.5 -104.5q189 0 334 84t226.5 240t79.5 371l60 -19h-656v168h778v-168q0 -262 -106 -453t-291 -295t-425 -104
q-268 0 -469 129.5t-312.5 366t-111.5 556.5q0 241 64 435t181.5 332t278.5 211.5t356 73.5q168 0 307.5 -53t246 -145.5t175 -213t92.5 -256.5h-192zM817 2658l239 -290l239 290h174v-14l-338 -402h-150l-338 402v14h174z" />
    <glyph glyph-name="uni01E7" unicode="&#x1e7;" horiz-adv-x="1692" 
d="M821 -608q-157 0 -275 40.5t-199 110.5t-126 157l146 96q33 -58 88.5 -114t145 -93t220.5 -37q204 0 329.5 102t125.5 317v346h-16q-31 -70 -89 -139.5t-151.5 -115.5t-231.5 -46q-184 0 -326.5 91t-224 260.5t-81.5 404.5q0 233 79.5 410t222.5 276t333 99
q141 0 234 -49.5t149.5 -122.5t88.5 -142h18v293h174v-1576q0 -195 -83 -321t-226 -186.5t-325 -60.5zM809 179q148 0 253 71.5t161 205.5t56 319q0 180 -55 319.5t-159.5 220t-255.5 80.5q-154 0 -260 -83t-160 -223.5t-54 -313.5q0 -176 55 -310.5t161 -210t258 -75.5z
M608 2146l239 -290l239 290h174v-14l-338 -402h-150l-338 402v14h174z" />
    <glyph glyph-name="uni01E8" unicode="&#x1e8;" horiz-adv-x="1803" 
d="M272 0v2048h187v-1103h18l1000 1103h246l-875 -947l871 -1101h-228l-759 971l-273 -306v-665h-187zM672 2658l239 -290l239 290h174v-14l-338 -402h-150l-338 402v14h174z" />
    <glyph glyph-name="uni01E9" unicode="&#x1e9;" horiz-adv-x="1479" 
d="M397 580l-2 233h40l720 723h225l-711 -712l-16 -3zM235 0v2048h178v-2048h-178zM1192 0l-624 789l128 123l724 -912h-228zM86 2658l239 -290l239 290h174v-14l-338 -402h-150l-338 402v14h174z" />
    <glyph glyph-name="uni01EA" unicode="&#x1ea;" horiz-adv-x="2131" 
d="M1951 1024q0 -320 -114 -556.5t-313.5 -366t-458.5 -129.5t-458.5 129.5t-313 366t-113.5 556.5t113.5 556.5t313.5 366t458 129.5q259 0 458.5 -129.5t313.5 -366t114 -556.5zM1769 1024q0 275 -92 471.5t-251 300.5t-361 104q-201 0 -360 -104t-251.5 -300t-92.5 -472
q0 -275 92 -471t251 -300.5t361 -104.5t361.5 104t251.5 300.5t91 471.5zM1071 -608q-117 0 -192.5 65t-75.5 189q0 74 33 144t103 135t180 126l93 -56q-94 -79 -161 -157.5t-67 -170.5q0 -59 30.5 -89.5t96.5 -30.5q44 0 78.5 12t60.5 29l23 -135q-36 -24 -86 -42.5
t-116 -18.5z" />
    <glyph glyph-name="uni01EB" unicode="&#x1eb;" horiz-adv-x="1664" 
d="M832 -32q-199 0 -351.5 101t-238.5 279.5t-86 412.5q0 236 86 415.5t238.5 280t351.5 100.5t351 -101t238.5 -280t86.5 -415q0 -234 -86 -412.5t-238.5 -279.5t-351.5 -101zM832 131q160 0 271 86t168.5 229t57.5 315t-57.5 316t-168.5 231t-271 87q-159 0 -270.5 -87
t-169 -231t-57.5 -316t57.5 -315t168.5 -229t271 -86zM831 -603q-117 0 -192.5 65t-75.5 189q0 74 33 144t103 135.5t180 125.5l93 -56q-94 -78 -161 -157t-67 -170q0 -60 30.5 -90.5t96.5 -30.5q44 0 78.5 12.5t60.5 28.5l23 -134q-36 -25 -86 -43.5t-116 -18.5z" />
    <glyph glyph-name="uni01EC" unicode="&#x1ec;" horiz-adv-x="2131" 
d="M1951 1024q0 -320 -114 -556.5t-313.5 -366t-458.5 -129.5t-458.5 129.5t-313 366t-113.5 556.5t113.5 556.5t313.5 366t458 129.5q259 0 458.5 -129.5t313.5 -366t114 -556.5zM1769 1024q0 275 -92 471.5t-251 300.5t-361 104q-201 0 -360 -104t-251.5 -300t-92.5 -472
q0 -275 92 -471t251 -300.5t361 -104.5t361.5 104t251.5 300.5t91 471.5zM1071 -608q-117 0 -192.5 65t-75.5 189q0 74 33 144t103 135t180 126l93 -56q-94 -79 -161 -157.5t-67 -170.5q0 -59 30.5 -89.5t96.5 -30.5q44 0 78.5 12t60.5 29l23 -135q-36 -24 -86 -42.5
t-116 -18.5zM1484 2515v-155h-837v155h837z" />
    <glyph glyph-name="uni01ED" unicode="&#x1ed;" horiz-adv-x="1664" 
d="M832 -32q-199 0 -351.5 101t-238.5 279.5t-86 412.5q0 236 86 415.5t238.5 280t351.5 100.5t351 -101t238.5 -280t86.5 -415q0 -234 -86 -412.5t-238.5 -279.5t-351.5 -101zM832 131q160 0 271 86t168.5 229t57.5 315t-57.5 316t-168.5 231t-271 87q-159 0 -270.5 -87
t-169 -231t-57.5 -316t57.5 -315t168.5 -229t271 -86zM831 -603q-117 0 -192.5 65t-75.5 189q0 74 33 144t103 135.5t180 125.5l93 -56q-94 -78 -161 -157t-67 -170q0 -60 30.5 -90.5t96.5 -30.5q44 0 78.5 12.5t60.5 28.5l23 -134q-36 -25 -86 -43.5t-116 -18.5zM1250 2003
v-155h-837v155h837z" />
    <glyph glyph-name="uni01EE" unicode="&#x1ee;" horiz-adv-x="1931" 
d="M148 92h189q7 -155 90 -274t220 -186.5t302 -67.5q186 0 325 87t216.5 237.5t77.5 340.5q0 208 -95 363.5t-263 243.5t-387 92h-132v160l753 791v-2h-1183v171h1434v-137l-770 -815v-16q244 -11 430.5 -122t291.5 -298.5t105 -428.5q0 -175 -56.5 -327.5t-162 -267
t-254 -179t-332.5 -64.5q-218 0 -396.5 89t-286.5 246.5t-116 363.5zM726 2658l239 -290l239 290h174v-14l-338 -402h-150l-338 402v14h174z" />
    <glyph glyph-name="uni01EF" unicode="&#x1ef;" horiz-adv-x="1741" 
d="M195 0h189q7 -115 71.5 -198.5t170 -128.5t235.5 -45q143 0 251.5 53.5t170 151t61.5 228.5q0 127 -62 231t-192.5 166t-336.5 62h-110v155l556 680v13h-910v168h1168v-137l-584 -718v-13q141 -6 261 -52.5t208 -126.5t137 -188.5t49 -239.5q0 -170 -84 -306.5
t-234.5 -215.5t-350.5 -79q-179 0 -327 66t-238.5 187.5t-98.5 286.5zM632 2146l239 -290l239 290h174v-14l-338 -402h-150l-338 402v14h174z" />
    <glyph glyph-name="uni01F0" unicode="&#x1f0;" horiz-adv-x="653" 
d="M237 1536h179v-1685q0 -131 -48.5 -226.5t-140.5 -148t-222 -52.5h-20t-22 1l2 167h19h19q110 0 172 68t62 191v1685zM86 2146l239 -290l239 290h174v-14l-338 -402h-150l-338 402v14h174z" />
    <glyph glyph-name="uni01F1" unicode="&#x1f1;" horiz-adv-x="3761" 
d="M872 0h-600v2048h636q293 0 501.5 -122t319.5 -350t111 -547q0 -322 -113.5 -552.5t-330 -353.5t-524.5 -123zM459 168h402q264 0 442 104t267 297t89 460q-1 265 -87.5 456t-256 293t-418.5 102h-438v-1712zM2211 0v141l1137 1739h-1143v168h1366v-141l-1138 -1739h1148
v-168h-1370z" />
    <glyph glyph-name="uni01F2" unicode="&#x1f2;" horiz-adv-x="3513" 
d="M872 0h-600v2048h636q293 0 501.5 -122t319.5 -350t111 -547q0 -322 -113.5 -552.5t-330 -353.5t-524.5 -123zM459 168h402q264 0 442 104t267 297t89 460q-1 265 -87.5 456t-256 293t-418.5 102h-438v-1712zM2207 0v141l888 1214v13h-850v168h1079v-147l-872 -1208v-13
h904v-168h-1149z" />
    <glyph glyph-name="uni01F3" unicode="&#x1f3;" horiz-adv-x="2955" 
d="M788 -32q-189 0 -331 100t-221.5 279t-79.5 417q0 237 79.5 415.5t222.5 278t333 99.5q140 0 233 -49.5t149 -122.5t87 -142h16v805h179v-2048h-174v285h-21q-31 -70 -88 -143.5t-150.5 -123.5t-233.5 -50zM809 131q149 0 254 81.5t160.5 225t55.5 329.5q0 184 -55 325.5
t-160 222t-255 80.5q-154 0 -259.5 -83.5t-160 -225.5t-54.5 -319q0 -179 55 -323t160.5 -228.5t258.5 -84.5zM1648 0v141l888 1214v13h-850v168h1079v-147l-872 -1208v-13h904v-168h-1149z" />
    <glyph glyph-name="uni01F4" unicode="&#x1f4;" horiz-adv-x="2088" 
d="M1689 1408q-28 102 -82 191.5t-133.5 157t-183 105.5t-230.5 38q-200 0 -358 -104t-249.5 -300t-91.5 -472q0 -275 92 -471t252.5 -300.5t367.5 -104.5q189 0 334 84t226.5 240t79.5 371l60 -19h-656v168h778v-168q0 -262 -106 -453t-291 -295t-425 -104
q-268 0 -469 129.5t-312.5 366t-111.5 556.5q0 241 64 435t181.5 332t278.5 211.5t356 73.5q168 0 307.5 -53t246 -145.5t175 -213t92.5 -256.5h-192zM973 2261l256 454h211l-307 -454h-160z" />
    <glyph glyph-name="uni01F5" unicode="&#x1f5;" horiz-adv-x="1692" 
d="M821 -608q-157 0 -275 40.5t-199 110.5t-126 157l146 96q33 -58 88.5 -114t145 -93t220.5 -37q204 0 329.5 102t125.5 317v346h-16q-31 -70 -89 -139.5t-151.5 -115.5t-231.5 -46q-184 0 -326.5 91t-224 260.5t-81.5 404.5q0 233 79.5 410t222.5 276t333 99
q141 0 234 -49.5t149.5 -122.5t88.5 -142h18v293h174v-1576q0 -195 -83 -321t-226 -186.5t-325 -60.5zM809 179q148 0 253 71.5t161 205.5t56 319q0 180 -55 319.5t-159.5 220t-255.5 80.5q-154 0 -260 -83t-160 -223.5t-54 -313.5q0 -176 55 -310.5t161 -210t258 -75.5z
M763 1749l256 454h211l-307 -454h-160z" />
    <glyph glyph-name="uni01F6" unicode="&#x1f6;" horiz-adv-x="3131" 
d="M2265 -29q-190 0 -335.5 73t-227 220.5t-81.5 370.5v306h-1162v-941h-187v2048h187v-939h1162v939h187v-1413q0 -252 120 -371.5t337 -119.5q218 0 331 119.5t113 371.5v914h187v-914q0 -228 -80.5 -375t-223 -218t-327.5 -71z" />
    <glyph glyph-name="uni01F7" unicode="&#x1f7;" horiz-adv-x="1633" 
d="M343 2048v-2624h-214v2624h214zM227 -228v173q270 50 470.5 166t332 280.5t196.5 359.5t65 403v61q0 180 -35.5 310t-105.5 212.5t-173 122.5t-238 40q-138 0 -228.5 -42t-146.5 -118.5t-91 -180.5l-10 379q90 66 206.5 102t267.5 36q237 0 409 -93.5t264.5 -285.5
t92.5 -486v-56q0 -271 -93 -504t-263.5 -415t-404 -301.5t-515.5 -162.5z" />
    <glyph glyph-name="uni01F8" unicode="&#x1f8;" horiz-adv-x="2139" 
d="M1867 2048v-2048h-182l-1210 1715h-16v-1715h-187v2048h181l1214 -1717h16v1717h184zM993 2261l-307 454h211l256 -454h-160z" />
    <glyph glyph-name="uni01F9" unicode="&#x1f9;" horiz-adv-x="1632" 
d="M413 960v-960h-178v1536h173v-241h16q54 118 168.5 189.5t283.5 71.5q155 0 272.5 -64.5t183 -189.5t65.5 -307v-995h-178v984q0 189 -105.5 299t-282.5 110q-121 0 -215 -52t-148.5 -149.5t-54.5 -231.5zM741 1749l-307 454h211l256 -454h-160z" />
    <glyph glyph-name="uni01FA" unicode="&#x1fa;" horiz-adv-x="1848" 
d="M275 0h-196l745 2048h200l745 -2048h-196l-642 1805h-14zM416 785h1016v-168h-1016v168zM845 2767l187 229h194l-230 -229h-151zM924 2176q-111 0 -190 74.5t-79 180.5q0 71 36 129t97.5 92.5t135.5 34.5q112 0 191 -75t79 -181q0 -71 -36.5 -129t-97.5 -92t-136 -34z
M925 2286q64 0 107 42.5t43 102.5q0 61 -43.5 103t-107.5 42t-107 -42.5t-43 -102.5t43 -102.5t108 -42.5z" />
    <glyph glyph-name="uni01FB" unicode="&#x1fb;" horiz-adv-x="1567" 
d="M664 -35q-139 0 -254 54.5t-183 158t-68 251.5q0 114 43 192t122 128t187 79t238 45q129 16 218.5 28t136.5 38t47 84v36q0 157 -93.5 247.5t-268.5 90.5q-166 0 -270.5 -73t-146.5 -172l-169 61q52 126 144 201.5t206 109t231 33.5q88 0 183.5 -23t177.5 -79.5t133 -157
t51 -254.5v-1043h-178v243h-11q-32 -68 -95 -132t-158 -105t-223 -41zM688 128q142 0 246 63t160.5 167.5t56.5 230.5v222q-20 -19 -66.5 -34t-107 -26.5t-120.5 -19.5t-108 -14q-130 -16 -222 -50t-141 -93.5t-49 -152.5q0 -140 100 -216.5t251 -76.5zM721 2255l187 229
h194l-230 -229h-151zM800 1664q-111 0 -190 74.5t-79 180.5q0 71 36 129t97.5 92.5t135.5 34.5q112 0 191 -75t79 -181q0 -71 -36.5 -129t-97.5 -92t-136 -34zM801 1774q64 0 107 42.5t43 102.5q0 61 -43.5 103t-107.5 42t-107 -42.5t-43 -102.5t43 -102.5t108 -42.5z" />
    <glyph glyph-name="uni01FC" unicode="&#x1fc;" horiz-adv-x="2759" 
d="M79 0l1009 2048h1460v-168h-1001v-771h938v-168h-938v-773h1021v-168h-1208v1880h-165l-911 -1880h-205zM503 617v168h952v-168h-952zM1706 2261l256 454h211l-307 -454h-160z" />
    <glyph glyph-name="uni01FD" unicode="&#x1fd;" horiz-adv-x="2601" 
d="M1823 -32q-247 0 -414 129t-216 336l36 731q76 182 221 287.5t346 105.5q125 0 241 -45.5t208.5 -139t146 -235t53.5 -334.5v-88h-1196v157h1015q0 148 -59.5 266t-165.5 187.5t-243 69.5q-147 0 -258 -78t-173 -206t-64 -280v-94q0 -183 64 -319.5t181 -211.5t277 -75
q109 0 191.5 34t138.5 91.5t86 126.5l169 -55q-35 -97 -114.5 -179t-198 -131.5t-272.5 -49.5zM688 128q142 0 246 63t160.5 167.5t56.5 230.5v222q-20 -19 -66.5 -34t-107 -26.5t-120.5 -19.5t-108 -14q-130 -16 -222 -50t-141 -93.5t-49 -152.5q0 -140 100 -216.5
t251 -76.5zM664 -35q-139 0 -254 54.5t-183 158t-68 251.5q0 114 43 192t122 128.5t187.5 79.5t237.5 44q129 16 218.5 28t136.5 38t47 84v36q0 157 -94 247.5t-268 90.5q-166 0 -270.5 -73t-146.5 -172l-169 61q52 126 144 201.5t206 109t231 33.5q80 0 163 -19t157.5 -62
t129 -115.5t77.5 -179.5l-62 -834h-17q-35 -119 -121 -204.5t-202.5 -131.5t-244.5 -46zM1206 1749l256 454h211l-307 -454h-160z" />
    <glyph glyph-name="uni01FE" unicode="&#x1fe;" horiz-adv-x="2131" 
d="M417 -72l-118 81l1409 2108l119 -81zM1951 1024q0 -320 -114 -556.5t-313.5 -366t-458.5 -129.5t-458.5 129.5t-313 366t-113.5 556.5t113.5 556.5t313.5 366t458 129.5q259 0 458.5 -129.5t313.5 -366t114 -556.5zM1769 1024q0 275 -92 471.5t-251 300.5t-361 104
q-201 0 -360 -104t-251.5 -300t-92.5 -472q0 -275 92 -471t251 -300.5t361 -104.5t361.5 104t251.5 300.5t91 471.5zM982 2261l256 454h211l-307 -454h-160z" />
    <glyph glyph-name="uni01FF" unicode="&#x1ff;" horiz-adv-x="1664" 
d="M357 -69l-120 81l1070 1585l120 -81zM832 -31q-199 0 -351.5 101t-238.5 280t-86 413q0 235 86 414.5t238.5 280.5t351.5 101t351 -101t238.5 -280.5t86.5 -414.5q0 -234 -86 -413t-238.5 -280t-351.5 -101zM832 132q160 0 271 86t168.5 229.5t57.5 315.5t-57.5 315.5
t-168.5 230.5t-271 87q-159 0 -270.5 -87t-169 -230.5t-57.5 -315.5t57.5 -315.5t168.5 -229.5t271 -86zM749 1750l256 454h211l-307 -454h-160z" />
    <glyph glyph-name="uni0200" unicode="&#x200;" horiz-adv-x="1848" 
d="M275 0h-196l745 2048h200l745 -2048h-196l-642 1805h-14zM416 785h1016v-168h-1016v168zM676 2261l-325 454h223l262 -454h-160zM1032 2261l-247 454h226l180 -454h-159z" />
    <glyph glyph-name="uni0201" unicode="&#x201;" horiz-adv-x="1567" 
d="M664 -35q-139 0 -254 54.5t-183 158t-68 251.5q0 114 43 192t122 128t187 79t238 45q129 16 218.5 28t136.5 38t47 84v36q0 157 -93.5 247.5t-268.5 90.5q-166 0 -270.5 -73t-146.5 -172l-169 61q52 126 144 201.5t206 109t231 33.5q88 0 183.5 -23t177.5 -79.5t133 -157
t51 -254.5v-1043h-178v243h-11q-32 -68 -95 -132t-158 -105t-223 -41zM688 128q142 0 246 63t160.5 167.5t56.5 230.5v222q-20 -19 -66.5 -34t-107 -26.5t-120.5 -19.5t-108 -14q-130 -16 -222 -50t-141 -93.5t-49 -152.5q0 -140 100 -216.5t251 -76.5zM552 1749l-325 454
h223l262 -454h-160zM908 1749l-247 454h226l180 -454h-159z" />
    <glyph glyph-name="uni0202" unicode="&#x202;" horiz-adv-x="1848" 
d="M275 0h-196l745 2048h200l745 -2048h-196l-642 1805h-14zM416 785h1016v-168h-1016v168zM574 2338q0 144 94.5 234t257.5 90t256 -90t93 -234h-168q0 81 -43.5 134.5t-137.5 53.5q-98 0 -141 -54.5t-43 -133.5h-168z" />
    <glyph glyph-name="uni0203" unicode="&#x203;" horiz-adv-x="1567" 
d="M664 -35q-139 0 -254 54.5t-183 158t-68 251.5q0 114 43 192t122 128t187 79t238 45q129 16 218.5 28t136.5 38t47 84v36q0 157 -93.5 247.5t-268.5 90.5q-166 0 -270.5 -73t-146.5 -172l-169 61q52 126 144 201.5t206 109t231 33.5q88 0 183.5 -23t177.5 -79.5t133 -157
t51 -254.5v-1043h-178v243h-11q-32 -68 -95 -132t-158 -105t-223 -41zM688 128q142 0 246 63t160.5 167.5t56.5 230.5v222q-20 -19 -66.5 -34t-107 -26.5t-120.5 -19.5t-108 -14q-130 -16 -222 -50t-141 -93.5t-49 -152.5q0 -140 100 -216.5t251 -76.5zM450 1826
q0 144 94.5 234t257.5 90t256 -90t93 -234h-168q0 81 -43.5 134.5t-137.5 53.5q-98 0 -141 -54.5t-43 -133.5h-168z" />
    <glyph glyph-name="uni0204" unicode="&#x204;" horiz-adv-x="1671" 
d="M272 0v2048h1188v-168h-1001v-771h938v-168h-938v-773h1021v-168h-1208zM619 2261l-325 454h223l262 -454h-160zM975 2261l-247 454h226l180 -454h-159z" />
    <glyph glyph-name="uni0205" unicode="&#x205;" horiz-adv-x="1635" 
d="M856 -32q-215 0 -372 100.5t-242.5 279t-85.5 411.5q0 232 85.5 412.5t237 283t350.5 102.5q125 0 241 -45.5t208.5 -139t146.5 -235t54 -334.5v-88h-1200v157h1018q0 148 -59.5 266.5t-165 187.5t-243.5 69q-146 0 -257 -78t-173.5 -206t-63.5 -280v-94
q0 -183 63.5 -319.5t180.5 -211.5t277 -75q109 0 191.5 34t139 91.5t85.5 126.5l169 -55q-35 -97 -114.5 -179t-198 -131.5t-272.5 -49.5zM572 1749l-325 454h223l262 -454h-160zM928 1749l-247 454h226l180 -454h-159z" />
    <glyph glyph-name="uni0206" unicode="&#x206;" horiz-adv-x="1671" 
d="M272 0v2048h1188v-168h-1001v-771h938v-168h-938v-773h1021v-168h-1208zM517 2338q0 144 94.5 234t257.5 90t256 -90t93 -234h-168q0 81 -43.5 134.5t-137.5 53.5q-98 0 -141 -54.5t-43 -133.5h-168z" />
    <glyph glyph-name="uni0207" unicode="&#x207;" horiz-adv-x="1635" 
d="M856 -32q-215 0 -372 100.5t-242.5 279t-85.5 411.5q0 232 85.5 412.5t237 283t350.5 102.5q125 0 241 -45.5t208.5 -139t146.5 -235t54 -334.5v-88h-1200v157h1018q0 148 -59.5 266.5t-165 187.5t-243.5 69q-146 0 -257 -78t-173.5 -206t-63.5 -280v-94
q0 -183 63.5 -319.5t180.5 -211.5t277 -75q109 0 191.5 34t139 91.5t85.5 126.5l169 -55q-35 -97 -114.5 -179t-198 -131.5t-272.5 -49.5zM470 1826q0 144 94.5 234t257.5 90t256 -90t93 -234h-168q0 81 -43.5 134.5t-137.5 53.5q-98 0 -141 -54.5t-43 -133.5h-168z" />
    <glyph glyph-name="uni0208" unicode="&#x208;" horiz-adv-x="731" 
d="M459 2048v-2048h-187v2048h187zM117 2261l-325 454h223l262 -454h-160zM473 2261l-247 454h226l180 -454h-159z" />
    <glyph glyph-name="uni0209" unicode="&#x209;" horiz-adv-x="653" 
d="M237 0v1536h179v-1536h-179zM80 1749l-325 454h223l262 -454h-160zM436 1749l-247 454h226l180 -454h-159z" />
    <glyph glyph-name="uni020A" unicode="&#x20a;" horiz-adv-x="731" 
d="M459 2048v-2048h-187v2048h187zM16 2338q0 144 94.5 234t257.5 90t256 -90t93 -234h-168q0 81 -43.5 134.5t-137.5 53.5q-98 0 -141 -54.5t-43 -133.5h-168z" />
    <glyph glyph-name="uni020B" unicode="&#x20b;" horiz-adv-x="653" 
d="M237 0v1536h179v-1536h-179zM-22 1826q0 144 94.5 234t257.5 90t256 -90t93 -234h-168q0 81 -43.5 134.5t-137.5 53.5q-98 0 -141 -54.5t-43 -133.5h-168z" />
    <glyph glyph-name="uni020C" unicode="&#x20c;" horiz-adv-x="2131" 
d="M1951 1024q0 -320 -114 -556.5t-313.5 -366t-458.5 -129.5t-458.5 129.5t-313 366t-113.5 556.5t113.5 556.5t313.5 366t458 129.5q259 0 458.5 -129.5t313.5 -366t114 -556.5zM1769 1024q0 275 -92 471.5t-251 300.5t-361 104q-201 0 -360 -104t-251.5 -300t-92.5 -472
q0 -275 92 -471t251 -300.5t361 -104.5t361.5 104t251.5 300.5t91 471.5zM817 2261l-325 454h223l262 -454h-160zM1173 2261l-247 454h226l180 -454h-159z" />
    <glyph glyph-name="uni020D" unicode="&#x20d;" horiz-adv-x="1664" 
d="M832 -32q-199 0 -351.5 101t-238.5 279.5t-86 412.5q0 236 86 415.5t238.5 280t351.5 100.5t351 -101t238.5 -280t86.5 -415q0 -234 -86 -412.5t-238.5 -279.5t-351.5 -101zM832 131q160 0 271 86t168.5 229t57.5 315t-57.5 316t-168.5 231t-271 87q-159 0 -270.5 -87
t-169 -231t-57.5 -316t57.5 -315t168.5 -229t271 -86zM584 1749l-325 454h223l262 -454h-160zM940 1749l-247 454h226l180 -454h-159z" />
    <glyph glyph-name="uni020E" unicode="&#x20e;" horiz-adv-x="2131" 
d="M1951 1024q0 -320 -114 -556.5t-313.5 -366t-458.5 -129.5t-458.5 129.5t-313 366t-113.5 556.5t113.5 556.5t313.5 366t458 129.5q259 0 458.5 -129.5t313.5 -366t114 -556.5zM1769 1024q0 275 -92 471.5t-251 300.5t-361 104q-201 0 -360 -104t-251.5 -300t-92.5 -472
q0 -275 92 -471t251 -300.5t361 -104.5t361.5 104t251.5 300.5t91 471.5zM716 2338q0 144 94.5 234t257.5 90t256 -90t93 -234h-168q0 81 -43.5 134.5t-137.5 53.5q-98 0 -141 -54.5t-43 -133.5h-168z" />
    <glyph glyph-name="uni020F" unicode="&#x20f;" horiz-adv-x="1664" 
d="M832 -32q-199 0 -351.5 101t-238.5 279.5t-86 412.5q0 236 86 415.5t238.5 280t351.5 100.5t351 -101t238.5 -280t86.5 -415q0 -234 -86 -412.5t-238.5 -279.5t-351.5 -101zM832 131q160 0 271 86t168.5 229t57.5 315t-57.5 316t-168.5 231t-271 87q-159 0 -270.5 -87
t-169 -231t-57.5 -316t57.5 -315t168.5 -229t271 -86zM482 1826q0 144 94.5 234t257.5 90t256 -90t93 -234h-168q0 81 -43.5 134.5t-137.5 53.5q-98 0 -141 -54.5t-43 -133.5h-168z" />
    <glyph glyph-name="uni0210" unicode="&#x210;" horiz-adv-x="1777" 
d="M272 0v2048h661q218 0 364.5 -78.5t221 -217t74.5 -317.5t-74.5 -316t-220.5 -214t-362 -77h-563v171h558q160 0 266.5 53t159 151t52.5 232t-53 234.5t-159.5 155.5t-268.5 55h-469v-1880h-187zM1175 924l504 -924h-216l-499 924h211zM631 2261l-325 454h223l262 -454
h-160zM987 2261l-247 454h226l180 -454h-159z" />
    <glyph glyph-name="uni0211" unicode="&#x211;" horiz-adv-x="1004" 
d="M235 0v1536h173v-236h13q46 116 160.5 187.5t259.5 71.5q22 0 49 -1t45 -2v-181q-12 2 -42 6t-65 4q-120 0 -213.5 -50.5t-147.5 -139.5t-54 -203v-992h-178zM335 1749l-325 454h223l262 -454h-160zM691 1749l-247 454h226l180 -454h-159z" />
    <glyph glyph-name="uni0212" unicode="&#x212;" horiz-adv-x="1777" 
d="M272 0v2048h661q218 0 364.5 -78.5t221 -217t74.5 -317.5t-74.5 -316t-220.5 -214t-362 -77h-563v171h558q160 0 266.5 53t159 151t52.5 232t-53 234.5t-159.5 155.5t-268.5 55h-469v-1880h-187zM1175 924l504 -924h-216l-499 924h211zM529 2338q0 144 94.5 234t257.5 90
t256 -90t93 -234h-168q0 81 -43.5 134.5t-137.5 53.5q-98 0 -141 -54.5t-43 -133.5h-168z" />
    <glyph glyph-name="uni0213" unicode="&#x213;" horiz-adv-x="1004" 
d="M235 0v1536h173v-236h13q46 116 160.5 187.5t259.5 71.5q22 0 49 -1t45 -2v-181q-12 2 -42 6t-65 4q-120 0 -213.5 -50.5t-147.5 -139.5t-54 -203v-992h-178zM233 1826q0 144 94.5 234t257.5 90t256 -90t93 -234h-168q0 81 -43.5 134.5t-137.5 53.5q-98 0 -141 -54.5
t-43 -133.5h-168z" />
    <glyph glyph-name="uni0214" unicode="&#x214;" horiz-adv-x="2096" 
d="M1637 2048h187v-1356q0 -209 -98 -373.5t-272.5 -259t-405.5 -94.5q-230 0 -405 95t-273 259t-98 373v1356h187v-1343q0 -163 73 -290.5t205.5 -200.5t310.5 -73t311 73t205.5 200.5t72.5 290.5v1343zM800 2261l-325 454h223l262 -454h-160zM1156 2261l-247 454h226
l180 -454h-159z" />
    <glyph glyph-name="uni0215" unicode="&#x215;" horiz-adv-x="1624" 
d="M1211 587v949h178v-1536h-178v255h-14q-54 -118 -171 -196.5t-286 -78.5q-147 0 -261 64.5t-179 189.5t-65 307v995h178v-984q0 -180 106 -289.5t272 -109.5q104 0 200 50t158 146.5t62 237.5zM565 1749l-325 454h223l262 -454h-160zM921 1749l-247 454h226l180 -454
h-159z" />
    <glyph glyph-name="uni0216" unicode="&#x216;" horiz-adv-x="2096" 
d="M1637 2048h187v-1356q0 -209 -98 -373.5t-272.5 -259t-405.5 -94.5q-230 0 -405 95t-273 259t-98 373v1356h187v-1343q0 -163 73 -290.5t205.5 -200.5t310.5 -73t311 73t205.5 200.5t72.5 290.5v1343zM698 2338q0 144 94.5 234t257.5 90t256 -90t93 -234h-168
q0 81 -43.5 134.5t-137.5 53.5q-98 0 -141 -54.5t-43 -133.5h-168z" />
    <glyph glyph-name="uni0217" unicode="&#x217;" horiz-adv-x="1624" 
d="M1211 587v949h178v-1536h-178v255h-14q-54 -118 -171 -196.5t-286 -78.5q-147 0 -261 64.5t-179 189.5t-65 307v995h178v-984q0 -180 106 -289.5t272 -109.5q104 0 200 50t158 146.5t62 237.5zM464 1826q0 144 94.5 234t257.5 90t256 -90t93 -234h-168q0 81 -43.5 134.5
t-137.5 53.5q-98 0 -141 -54.5t-43 -133.5h-168z" />
    <glyph glyph-name="uni0218" unicode="&#x218;" horiz-adv-x="1772" 
d="M1384 1536q-17 171 -151 272t-337 101q-143 0 -251.5 -49t-170 -135.5t-61.5 -196.5q0 -81 35 -142t94.5 -104.5t132 -74.5t146.5 -52l216 -62q98 -27 196 -69t179.5 -105.5t131 -155t49.5 -219.5q0 -164 -85 -295t-244 -207.5t-381 -76.5q-209 0 -363 69.5t-242 192.5
t-99 285h192q10 -121 80 -205t182 -127.5t250 -43.5q153 0 272.5 51.5t188 144t68.5 215.5q0 104 -54 174.5t-150.5 118.5t-223.5 85l-245 72q-241 72 -374 199t-133 324q0 165 88.5 290.5t240 196t340.5 70.5q191 0 338 -70t233.5 -192.5t92.5 -278.5h-181zM675 -715
l119 518h185l-164 -518h-140z" />
    <glyph glyph-name="uni0219" unicode="&#x219;" horiz-adv-x="1444" 
d="M1267 1199l-163 -46q-24 69 -68 125t-114.5 89t-174.5 33q-156 0 -256 -74t-100 -191q0 -99 68.5 -160.5t211.5 -97.5l232 -57q193 -47 289.5 -149t96.5 -256q0 -130 -72 -231t-200.5 -158.5t-297.5 -57.5q-225 0 -371 101.5t-187 293.5l171 42q33 -137 129.5 -207
t254.5 -70q177 0 283 79.5t106 199.5q0 93 -62 156.5t-188 93.5l-251 60q-200 48 -296 152t-96 258q0 127 69 223.5t190 151.5t276 55q211 0 337.5 -95.5t182.5 -262.5zM524 -680l119 518h185l-164 -518h-140z" />
    <glyph glyph-name="uni021A" unicode="&#x21a;" horiz-adv-x="1781" 
d="M148 1880v168h1485v-168h-649v-1880h-187v1880h-649zM678 -680l119 518h185l-164 -518h-140z" />
    <glyph glyph-name="uni021B" unicode="&#x21b;" horiz-adv-x="1009" 
d="M840 1536v-155h-733v155h733zM336 1904h179v-1503q0 -96 33 -150.5t86 -77t113 -22.5q35 0 60 4.5t44 9.5l38 -161q-26 -10 -64 -18.5t-94 -8.5q-98 0 -188.5 43t-148.5 128t-58 211v1545zM368 -680l119 518h185l-164 -518h-140z" />
    <glyph glyph-name="uni021C" unicode="&#x21c;" horiz-adv-x="1739" 
d="M296 480v160q240 71 429 158t322 192.5t202.5 230.5t68.5 272q-1 190 -120.5 298.5t-329.5 108.5q-143 0 -250.5 -48.5t-167.5 -133t-59 -193.5h-211q0 165 88.5 289t244 193t355.5 69q192 0 341.5 -68t234.5 -195t85 -304q0 -180 -92.5 -340t-258.5 -292.5t-391 -233
t-491 -163.5zM1112 924l107 121q110 -47 186 -127t116 -197t40 -276q1 -225 -84 -389.5t-247.5 -284.5t-397.5 -208.5t-536 -162.5v174q267 66 465 143.5t328 178.5t194.5 238t64.5 323q0 185 -57 300t-179 167z" />
    <glyph glyph-name="uni021D" unicode="&#x21d;" horiz-adv-x="1486" 
d="M289 313v158q240 47 415 137.5t270 215t94 272.5q-1 137 -82 215t-234 78q-105 0 -186.5 -38t-127.5 -108t-46 -166h-203q1 148 72.5 255.5t200 166t297.5 58.5q238 0 376.5 -123t137.5 -331q0 -189 -124.5 -351t-346 -276t-513.5 -163zM909 643l117 108
q137 -72 206 -202.5t69 -320.5q1 -359 -250 -565.5t-762 -262.5v166q284 46 462 131t261.5 218.5t83.5 321.5q0 147 -49 251.5t-138 154.5z" />
    <glyph glyph-name="uni021E" unicode="&#x21e;" horiz-adv-x="2080" 
d="M272 0v2048h187v-939h1162v939h187v-2048h-187v941h-1162v-941h-187zM808 2660l239 -290l239 290h174v-14l-338 -402h-150l-338 402v14h174z" />
    <glyph glyph-name="uni021F" unicode="&#x21f;" horiz-adv-x="1643" 
d="M413 960v-960h-178v2048h178v-753h16q54 119 167.5 190t287.5 71q156 0 274 -64t184 -189t66 -308v-995h-179v984q0 190 -105.5 299.5t-284.5 109.5q-123 0 -219 -52t-151.5 -149.5t-55.5 -231.5zM86 2658l239 -290l239 290h174v-14l-338 -402h-150l-338 402v14h174z" />
    <glyph glyph-name="uni0220" unicode="&#x220;" horiz-adv-x="1671" 
d="M1521 -573h-206v1942q0 194 -59.5 311t-175 170t-283.5 53q-147 0 -270 -36.5t-219 -102.5l-10 166q63 43 142 76t172.5 51.5t198.5 18.5q199 0 359.5 -74.5t255.5 -231t95 -403.5v-1940zM359 2048v-2048h-203v2048h203z" />
    <glyph glyph-name="uni0221" unicode="&#x221;" horiz-adv-x="2025" 
d="M1275 251h178v-434q0 -108 66 -170t157 -62q88 0 144.5 54.5t56.5 135.5q0 76 -52 128t-134 58q-87 8 -161 -40.5t-149 -151.5l-280 -300l-120 115l238 261q113 144 231.5 210t237.5 66q160 0 266.5 -96.5t106.5 -249.5q0 -101 -48.5 -179.5t-135 -123t-201.5 -44.5
q-136 0 -225 59t-132.5 151t-43.5 193v420zM787 -32q-189 0 -331.5 100t-221.5 279t-79 417q0 237 79.5 415.5t222.5 278t332 99.5q141 0 233.5 -49.5t149 -122.5t87.5 -142h16v805h178v-2048h-173v285h-21q-32 -70 -89 -143.5t-150.5 -123.5t-232.5 -50zM808 131
q149 0 254 81.5t160 225t55 329.5q0 184 -54.5 325.5t-159.5 222t-255 80.5q-154 0 -260 -83.5t-160.5 -225.5t-54.5 -319q0 -179 55 -323t161 -228.5t259 -84.5z" />
    <glyph glyph-name="uni0222" unicode="&#x222;" horiz-adv-x="1715" 
d="M839 1189h37q220 0 385.5 -68.5t258.5 -202.5t93 -332q0 -206 -94.5 -342.5t-262 -204t-385.5 -67.5h-27q-219 0 -386 67.5t-262 203.5t-95 340q0 199 93 334t259 203.5t386 68.5zM876 1023h-37q-252 0 -389.5 -109.5t-137.5 -330.5q0 -222 141 -327t390 -105h28
q249 0 390.5 105t141.5 330q0 218 -138 327.5t-389 109.5zM831 1202h54q148 0 262.5 31.5t180 111t65.5 224.5q0 149 -74 232.5t-208 112.5v166q139 -11 251 -70.5t177 -169t65 -271.5q0 -196 -95.5 -312.5t-259 -168t-365.5 -51.5h-53q-151 0 -282.5 28t-229.5 90.5
t-153 164t-55 249.5q0 159 63.5 267.5t172.5 167.5t244 72v-167q-129 -31 -199.5 -112.5t-70.5 -227.5q0 -145 66 -225t181 -111t263 -31z" />
    <glyph glyph-name="uni0223" unicode="&#x223;" horiz-adv-x="1739" 
d="M839 1185h62q218 0 383 -67t258 -199.5t93 -329.5q0 -205 -94 -342t-260.5 -206t-384.5 -69h-52q-218 0 -384.5 69t-261 205.5t-94.5 339.5q0 199 93 332t258.5 200t383.5 67zM901 1025h-62q-249 0 -389.5 -109t-140.5 -330t143.5 -333.5t390.5 -112.5h53
q246 0 390 112.5t144 336.5q0 218 -142 327t-387 109zM916 1193q148 0 263.5 39t181.5 127t66 234q0 162 -73 254.5t-212 134.5v158q142 -11 253 -77.5t174.5 -185t63.5 -284.5q0 -196 -95.5 -319t-258 -180.5t-364.5 -57.5h-91q-202 0 -364.5 57.5t-257.5 180.5t-95 319
q0 164 61.5 281t169.5 183.5t247 78.5v-159q-134 -44 -203.5 -134.5t-69.5 -249.5q0 -147 67 -234.5t182.5 -126.5t262.5 -39h92z" />
    <glyph glyph-name="uni0224" unicode="&#x224;" horiz-adv-x="1721" 
d="M172 1880v168h1365v-141l-1137 -1739h798q170 0 266.5 -99t96.5 -263v-94h-171v53q0 68 -18.5 121t-60.5 83.5t-114 30.5h-1020v141l1138 1739h-1143z" />
    <glyph glyph-name="uni0225" unicode="&#x225;" horiz-adv-x="1491" 
d="M1219 -299v53q0 72 -17.5 127.5t-61.5 87t-123 31.5h-828v155l884 1213h-874v168h1102v-147l-882 -1221h600q173 0 267.5 -102t94.5 -260v-105h-162z" />
    <glyph glyph-name="uni0226" unicode="&#x226;" horiz-adv-x="1848" 
d="M275 0h-196l745 2048h200l745 -2048h-196l-642 1805h-14zM416 785h1016v-168h-1016v168zM924 2312q-54 0 -93.5 37.5t-39.5 90.5t39.5 90.5t93.5 37.5q55 0 94.5 -37.5t39.5 -90.5t-39.5 -90.5t-94.5 -37.5z" />
    <glyph glyph-name="uni0227" unicode="&#x227;" horiz-adv-x="1567" 
d="M664 -35q-139 0 -254 54.5t-183 158t-68 251.5q0 114 43 192t122 128t187 79t238 45q129 16 218.5 28t136.5 38t47 84v36q0 157 -93.5 247.5t-268.5 90.5q-166 0 -270.5 -73t-146.5 -172l-169 61q52 126 144 201.5t206 109t231 33.5q88 0 183.5 -23t177.5 -79.5t133 -157
t51 -254.5v-1043h-178v243h-11q-32 -68 -95 -132t-158 -105t-223 -41zM688 128q142 0 246 63t160.5 167.5t56.5 230.5v222q-20 -19 -66.5 -34t-107 -26.5t-120.5 -19.5t-108 -14q-130 -16 -222 -50t-141 -93.5t-49 -152.5q0 -140 100 -216.5t251 -76.5zM800 1800
q-54 0 -93.5 37.5t-39.5 90.5t39.5 90.5t93.5 37.5q55 0 94.5 -37.5t39.5 -90.5t-39.5 -90.5t-94.5 -37.5z" />
    <glyph glyph-name="uni0228" unicode="&#x228;" horiz-adv-x="1671" 
d="M272 0v2048h1188v-168h-1001v-771h938v-168h-938v-773h1021v-168h-1208zM761 8h152l-15 -80q86 -13 146.5 -69.5t61.5 -165.5q-1 -121 -94.5 -192t-275.5 -73l-6 125q99 2 156 33.5t57 101.5q0 75 -52.5 106t-165.5 37z" />
    <glyph glyph-name="uni0229" unicode="&#x229;" horiz-adv-x="1635" 
d="M856 -32q-215 0 -372 100.5t-242.5 279t-85.5 411.5q0 232 85.5 412.5t237 283t350.5 102.5q125 0 241 -45.5t208.5 -139t146.5 -235t54 -334.5v-88h-1200v157h1018q0 148 -59.5 266.5t-165 187.5t-243.5 69q-146 0 -257 -78t-173.5 -206t-63.5 -280v-94
q0 -183 63.5 -319.5t180.5 -211.5t277 -75q109 0 191.5 34t139 91.5t85.5 126.5l169 -55q-35 -97 -114.5 -179t-198 -131.5t-272.5 -49.5zM744 8h152l-15 -80q86 -13 146.5 -69.5t61.5 -165.5q-1 -121 -94.5 -192t-275.5 -73l-6 125q99 2 156 33.5t57 101.5q0 75 -52.5 106
t-165.5 37z" />
    <glyph glyph-name="uni022A" unicode="&#x22a;" horiz-adv-x="2131" 
d="M1951 1024q0 -320 -114 -556.5t-313.5 -366t-458.5 -129.5t-458.5 129.5t-313 366t-113.5 556.5t113.5 556.5t313.5 366t458 129.5q259 0 458.5 -129.5t313.5 -366t114 -556.5zM1769 1024q0 275 -92 471.5t-251 300.5t-361 104q-201 0 -360 -104t-251.5 -300t-92.5 -472
q0 -275 92 -471t251 -300.5t361 -104.5t361.5 104t251.5 300.5t91 471.5zM810 2312q-51 0 -89.5 38.5t-38.5 89.5q0 55 38.5 91.5t89.5 36.5q54 0 91 -36.5t37 -91.5q0 -51 -37 -89.5t-91 -38.5zM1322 2312q-51 0 -89.5 38.5t-38.5 89.5q0 55 38.5 91.5t89.5 36.5
q54 0 91 -36.5t37 -91.5q0 -51 -37 -89.5t-91 -38.5zM1485 2986v-155h-837v155h837z" />
    <glyph glyph-name="uni022B" unicode="&#x22b;" horiz-adv-x="1664" 
d="M832 -32q-199 0 -351.5 101t-238.5 279.5t-86 412.5q0 236 86 415.5t238.5 280t351.5 100.5t351 -101t238.5 -280t86.5 -415q0 -234 -86 -412.5t-238.5 -279.5t-351.5 -101zM832 131q160 0 271 86t168.5 229t57.5 315t-57.5 316t-168.5 231t-271 87q-159 0 -270.5 -87
t-169 -231t-57.5 -316t57.5 -315t168.5 -229t271 -86zM577 1800q-51 0 -89.5 39t-38.5 89q0 55 38.5 91.5t89.5 36.5q55 0 91.5 -36.5t36.5 -91.5q0 -50 -36.5 -89t-91.5 -39zM1089 1800q-51 0 -89.5 39t-38.5 89q0 55 38.5 91.5t89.5 36.5q55 0 91.5 -36.5t36.5 -91.5
q0 -50 -36.5 -89t-91.5 -39zM1252 2474v-154h-837v154h837z" />
    <glyph glyph-name="uni022C" unicode="&#x22c;" horiz-adv-x="2131" 
d="M1951 1024q0 -320 -114 -556.5t-313.5 -366t-458.5 -129.5t-458.5 129.5t-313 366t-113.5 556.5t113.5 556.5t313.5 366t458 129.5q259 0 458.5 -129.5t313.5 -366t114 -556.5zM1769 1024q0 275 -92 471.5t-251 300.5t-361 104q-201 0 -360 -104t-251.5 -300t-92.5 -472
q0 -275 92 -471t251 -300.5t361 -104.5t361.5 104t251.5 300.5t91 471.5zM1330 2535l99 -24q-3 -94 -62 -162.5t-151 -69.5q-71 0 -116 29.5t-85 59t-98 29.5q-47 0 -78.5 -39.5t-34.5 -88.5l-99 24q3 92 62.5 163t150.5 71q65 0 110 -28.5t88 -57.5t99 -28q46 0 79 35.5
t36 86.5zM1483 2835v-160h-840v160h840z" />
    <glyph glyph-name="uni022D" unicode="&#x22d;" horiz-adv-x="1664" 
d="M832 -32q-199 0 -351.5 101t-238.5 279.5t-86 412.5q0 236 86 415.5t238.5 280t351.5 100.5t351 -101t238.5 -280t86.5 -415q0 -234 -86 -412.5t-238.5 -279.5t-351.5 -101zM832 131q160 0 271 86t168.5 229t57.5 315t-57.5 316t-168.5 231t-271 87q-159 0 -270.5 -87
t-169 -231t-57.5 -316t57.5 -315t168.5 -229t271 -86zM1132 2089l142 -13q-2 -90 -37.5 -157t-95 -103.5t-133.5 -37.5q-63 0 -106 21.5t-77.5 49t-72 48.5t-89.5 21q-56 0 -93.5 -45t-40.5 -108l-139 8q2 89 37 157t94.5 107t134.5 39q56 0 98 -21.5t78.5 -49t75.5 -48.5
t88 -21q58 0 95.5 44.5t40.5 108.5zM1255 2391v-160h-840v160h840z" />
    <glyph glyph-name="uni022E" unicode="&#x22e;" horiz-adv-x="2131" 
d="M1951 1024q0 -320 -114 -556.5t-313.5 -366t-458.5 -129.5t-458.5 129.5t-313 366t-113.5 556.5t113.5 556.5t313.5 366t458 129.5q259 0 458.5 -129.5t313.5 -366t114 -556.5zM1769 1024q0 275 -92 471.5t-251 300.5t-361 104q-201 0 -360 -104t-251.5 -300t-92.5 -472
q0 -275 92 -471t251 -300.5t361 -104.5t361.5 104t251.5 300.5t91 471.5zM1065 2312q-54 0 -93.5 37.5t-39.5 90.5t39.5 90.5t93.5 37.5q55 0 94.5 -37.5t39.5 -90.5t-39.5 -90.5t-94.5 -37.5z" />
    <glyph glyph-name="uni022F" unicode="&#x22f;" horiz-adv-x="1664" 
d="M832 -32q-199 0 -351.5 101t-238.5 279.5t-86 412.5q0 236 86 415.5t238.5 280t351.5 100.5t351 -101t238.5 -280t86.5 -415q0 -234 -86 -412.5t-238.5 -279.5t-351.5 -101zM832 131q160 0 271 86t168.5 229t57.5 315t-57.5 316t-168.5 231t-271 87q-159 0 -270.5 -87
t-169 -231t-57.5 -316t57.5 -315t168.5 -229t271 -86zM832 1800q-54 0 -93.5 37.5t-39.5 90.5t39.5 90.5t93.5 37.5q55 0 94.5 -37.5t39.5 -90.5t-39.5 -90.5t-94.5 -37.5z" />
    <glyph glyph-name="uni0230" unicode="&#x230;" horiz-adv-x="2131" 
d="M1951 1024q0 -320 -114 -556.5t-313.5 -366t-458.5 -129.5t-458.5 129.5t-313 366t-113.5 556.5t113.5 556.5t313.5 366t458 129.5q259 0 458.5 -129.5t313.5 -366t114 -556.5zM1769 1024q0 275 -92 471.5t-251 300.5t-361 104q-201 0 -360 -104t-251.5 -300t-92.5 -472
q0 -275 92 -471t251 -300.5t361 -104.5t361.5 104t251.5 300.5t91 471.5zM1066 2312q-55 0 -94.5 38t-39.5 90q0 53 39.5 90.5t94.5 37.5t94 -37.5t39 -90.5q0 -52 -39 -90t-94 -38zM1484 2986v-155h-837v155h837z" />
    <glyph glyph-name="uni0231" unicode="&#x231;" horiz-adv-x="1664" 
d="M832 -32q-199 0 -351.5 101t-238.5 279.5t-86 412.5q0 236 86 415.5t238.5 280t351.5 100.5t351 -101t238.5 -280t86.5 -415q0 -234 -86 -412.5t-238.5 -279.5t-351.5 -101zM832 131q160 0 271 86t168.5 229t57.5 315t-57.5 316t-168.5 231t-271 87q-159 0 -270.5 -87
t-169 -231t-57.5 -316t57.5 -315t168.5 -229t271 -86zM1254 2482v-155h-838v155h838zM835 1808q-54 0 -93.5 38t-39.5 90q0 53 39.5 90.5t93.5 37.5q55 0 94 -37.5t39 -90.5q0 -52 -39 -90t-94 -38z" />
    <glyph glyph-name="uni0232" unicode="&#x232;" horiz-adv-x="1824" 
d="M80 2048h216l607 -972h18l607 972h216l-739 -1161v-887h-186v887zM1330 2515v-155h-837v155h837z" />
    <glyph glyph-name="uni0233" unicode="&#x233;" horiz-adv-x="1536" 
d="M359 -576q-53 0 -99 10t-73 22l48 157q91 -28 162 -20.5t126 64t98 172.5l56 156l-565 1551h193l456 -1301h14l456 1301h193l-650 -1779q-41 -111 -101 -185.5t-138.5 -111t-175.5 -36.5zM1186 2003v-155h-837v155h837z" />
    <glyph glyph-name="uni0234" unicode="&#x234;" horiz-adv-x="890" 
d="M237 251h179v-460q0 -86 65.5 -146t157.5 -60q88 0 144.5 54.5t56.5 135.5q0 82 -59 133t-152 51q-103 0 -182.5 -66t-167.5 -182l-216 -242l-119 115l238 261q56 73 114 124.5t117 85.5t118.5 50t119.5 16q106 0 190.5 -44t133.5 -122t49 -180q0 -101 -48.5 -179.5
t-135 -123t-201.5 -44.5q-102 0 -177.5 34t-125.5 92t-74.5 130t-24.5 147v420zM416 2048v-2048h-179v2048h179z" />
    <glyph glyph-name="uni0235" unicode="&#x235;" horiz-adv-x="2136" 
d="M1219 199h178v-180q0 -86 66 -146t157 -60q88 0 144.5 54.5t56.5 135.5q0 82 -59 133t-151 51q-52 0 -97 -17t-86 -49t-82 -78t-85 -104l-216 -242l-120 115l238 261q57 73 114.5 124.5t116 85.5t118 50t120.5 16q107 0 191.5 -44t133 -122t48.5 -180
q0 -101 -48.5 -179.5t-135 -123t-201.5 -44.5q-102 0 -177.5 34t-125.5 92t-74 130t-24 147v140zM413 960v-960h-178v1536h173v-241h16q54 118 168.5 189.5t283.5 71.5q155 0 272.5 -64.5t183 -189.5t65.5 -307v-995h-178v984q0 189 -105.5 299t-282.5 110q-121 0 -215 -52
t-148.5 -149.5t-54.5 -231.5z" />
    <glyph glyph-name="uni0236" unicode="&#x236;" horiz-adv-x="1320" 
d="M397 1904h179v-1572q0 -86 64 -145.5t159 -59.5q84 0 145 50.5t61 138.5q0 75 -53 129.5t-163 54.5q-48 0 -101.5 -25.5t-118.5 -82t-149 -149.5t-193 -228l-120 114q154 192 267 309t215 171t222 54q179 0 278.5 -98t99.5 -241q0 -77 -27.5 -142t-79.5 -112.5t-124 -74
t-159 -26.5q-102 0 -177.5 34t-125.5 92t-74.5 130t-24.5 147v1532zM901 1536v-155h-733v155h733z" />
    <glyph glyph-name="uni0237" unicode="&#x237;" horiz-adv-x="653" 
d="M237 1536h179v-1685q0 -131 -48.5 -226.5t-140.5 -148t-222 -52.5h-20t-22 1l2 167h19h19q110 0 172 68t62 191v1685z" />
    <glyph glyph-name="uni0238" unicode="&#x238;" horiz-adv-x="2495" 
d="M2365 772v-21q0 -231 -72.5 -407t-205 -274.5t-312.5 -98.5q-114 0 -207 40.5t-164.5 118t-120.5 189.5t-74 254v382q33 189 109 324t191.5 206.5t269.5 71.5q180 0 311.5 -96.5t203 -273t71.5 -415.5zM2159 751v21q0 178 -45 316t-137.5 217t-233.5 79
q-168 0 -279.5 -108t-160.5 -267v-490q38 -107 98.5 -192t146.5 -134t198 -49q141 0 232.5 78.5t136 215.5t44.5 313zM1145 282v1766h205v-2048h-186zM130 751v21q0 239 71.5 415.5t203 273t310.5 96.5q154 0 270 -71.5t191.5 -206.5t109.5 -324v-382q-25 -142 -74 -254
t-120.5 -189.5t-165 -118t-207.5 -40.5q-180 0 -312.5 98.5t-204.5 274.5t-72 407zM335 772v-21q0 -176 45 -313t136.5 -215.5t232.5 -78.5q112 0 197.5 49t146 134t98.5 192v490q-32 106 -92.5 190.5t-147.5 134.5t-199 50q-142 0 -234 -79t-137.5 -217t-45.5 -316z" />
    <glyph glyph-name="uni0239" unicode="&#x239;" horiz-adv-x="2495" 
d="M1146 -572v1829l19 279h167l19 -279v-1829h-205zM130 751v21q0 239 71.5 415.5t203 273t310.5 96.5q154 0 270 -71.5t191.5 -206.5t109.5 -324v-382q-25 -142 -74 -254t-120.5 -189.5t-165 -118t-207.5 -40.5q-180 0 -312.5 98.5t-204.5 274.5t-72 407zM335 772v-21
q0 -176 45 -313t136.5 -215.5t232.5 -78.5q112 0 197.5 49t146 134t98.5 192v490q-32 106 -92.5 190.5t-147.5 134.5t-199 50q-142 0 -234 -79t-137.5 -217t-45.5 -316zM2365 772v-21q0 -231 -72.5 -407t-205 -274.5t-312.5 -98.5q-114 0 -207 40.5t-164.5 118t-120.5 189.5
t-74 254v382q33 189 109 324t191.5 206.5t269.5 71.5q180 0 311.5 -96.5t203 -273t71.5 -415.5zM2159 751v21q0 178 -45 316t-137.5 217t-233.5 79q-168 0 -279.5 -108t-160.5 -267v-490q38 -107 98.5 -192t146.5 -134t198 -49q141 0 232.5 78.5t136 215.5t44.5 313z" />
    <glyph glyph-name="uni023A" unicode="&#x23a;" horiz-adv-x="1848" 
d="M1501 2308l-912 -2568h-174l912 2568h174zM275 0h-196l745 2048h200l745 -2048h-196l-642 1805h-14zM416 785h1016v-168h-1016v168z" />
    <glyph glyph-name="uni023B" unicode="&#x23b;" horiz-adv-x="2044" 
d="M477 -260l940 2568h175l-940 -2568h-175zM1876 1408h-188q-21 105 -75.5 194.5t-136.5 156.5t-186 104t-225 37q-194 0 -353.5 -101t-255 -296.5t-95.5 -478.5q0 -285 95.5 -480t255 -295.5t353.5 -100.5q121 0 225 37t186 103.5t136.5 156.5t75.5 195h188
q-25 -141 -93.5 -262.5t-174 -212.5t-242.5 -142t-301 -51q-258 0 -458 129.5t-313.5 365.5t-113.5 557t113.5 557t313.5 365.5t458 129.5q164 0 301 -50.5t242.5 -142t174 -212.5t93.5 -263z" />
    <glyph glyph-name="uni023C" unicode="&#x23c;" horiz-adv-x="1543" 
d="M1418 2048l-1097 -2624h-154l1103 2624h148zM835 -32q-206 0 -358.5 103t-236.5 282t-84 408q0 231 85.5 411t237.5 282.5t353 102.5q154 0 279 -59.5t206.5 -167t102.5 -250.5h-180q-28 130 -134.5 222.5t-270.5 92.5q-147 0 -260 -79.5t-176.5 -221t-63.5 -327.5
q0 -187 62 -330.5t174.5 -224.5t263.5 -81q102 0 186.5 38.5t142 109.5t77.5 169h180q-20 -139 -98.5 -247.5t-203 -170.5t-284.5 -62z" />
    <glyph glyph-name="uni023D" unicode="&#x23d;" horiz-adv-x="1584" 
d="M272 0v2048h187v-1880h976v-168h-1163zM-55 984v144h840v-144h-840z" />
    <glyph glyph-name="uni023E" unicode="&#x23e;" horiz-adv-x="1781" 
d="M357 -260l939 2568h173l-939 -2568h-173zM148 1880v168h1485v-168h-649v-1880h-187v1880h-649z" />
    <glyph glyph-name="uni023F" unicode="&#x23f;" horiz-adv-x="1434" 
d="M352 318q135 -237 216.5 -383.5t131.5 -223.5t86.5 -104.5t79.5 -27.5q49 0 96.5 28t88.5 62l72 -125q-53 -46 -120 -83t-136 -37q-75 0 -135.5 31t-112 92t-102.5 149l-309 537zM1267 1199l-163 -46q-24 69 -68 125t-114.5 89t-174.5 33q-156 0 -256 -74t-100 -191
q0 -99 68.5 -160.5t211.5 -97.5l232 -57q193 -47 289.5 -149t96.5 -256q0 -130 -72 -231t-200.5 -158.5t-297.5 -57.5q-225 0 -371 101.5t-187 293.5l171 42q33 -137 129.5 -207t254.5 -70q177 0 283 79.5t106 199.5q0 93 -62 156.5t-188 93.5l-251 60q-200 48 -296 152
t-96 258q0 127 69 223.5t190 151.5t276 55q211 0 337.5 -95.5t182.5 -262.5z" />
    <glyph glyph-name="uni0240" unicode="&#x240;" horiz-adv-x="1488" 
d="M400 168h69q131 0 227 -41.5t166.5 -107t125 -139t102 -139t97 -107t110.5 -41.5q30 0 57 7t52 20t50 30l61 -125q-40 -35 -100 -67.5t-136 -32.5q-86 0 -149.5 41.5t-116 107t-104.5 139t-114.5 139t-146 107t-199.5 41.5h-52zM419 168v-168h-230v155l884 1213h-874v168
h1102v-147z" />
    <glyph glyph-name="uni0241" unicode="&#x241;" horiz-adv-x="1487" 
d="M660 597h44q166 0 265 70.5t142.5 190t43.5 266.5v247q0 107 -23.5 201.5t-74 167t-133 113.5t-200.5 41q-178 0 -285.5 -99t-117.5 -263h-200q8 159 84.5 281.5t209.5 192.5t309 70q212 0 354.5 -94t214.5 -253.5t72 -357.5v-247q0 -200 -73.5 -360.5t-219.5 -254
t-364 -92.5h-48v180zM821 597v-597h-213v597h213z" />
    <glyph glyph-name="uni0242" unicode="&#x242;" horiz-adv-x="1473" 
d="M197 969q2 191 71.5 322t193.5 198.5t287 67.5q164 0 282 -66t181.5 -193t63.5 -311q0 -157 -53.5 -277.5t-168 -188t-297.5 -67.5h-50v135h44q169 0 245.5 105.5t76.5 283.5q0 184 -79 297.5t-248 113.5q-161 0 -251.5 -110t-91.5 -310h-206zM657 589h206v-589h-206v589
z" />
    <glyph glyph-name="uni0243" unicode="&#x243;" horiz-adv-x="1971" 
d="M421 0v2048h691q200 0 333.5 -70t200.5 -191t67 -275q0 -128 -43 -219t-117 -147t-165 -81v-16q99 -7 192 -69.5t153 -174.5t60 -268q0 -155 -69 -276.5t-211.5 -191t-362.5 -69.5h-729zM608 168h542q237 0 350.5 105t113.5 264q0 117 -56.5 212.5t-159 151.5t-240.5 56
h-550v-789zM608 1123h521q121 0 212 50t142 138t51 201q0 163 -106 265.5t-316 102.5h-504v-757zM97 512v144h840v-144h-840z" />
    <glyph glyph-name="uni0244" unicode="&#x244;" horiz-adv-x="2070" 
d="M2077 1193v-130h-2084v130h2084zM1620 2048h187v-1356q0 -209 -98 -373.5t-272.5 -259t-405.5 -94.5t-406 95t-273 259t-97 373v1356h186v-1343q0 -163 73.5 -290.5t205.5 -200.5t311 -73q178 0 310.5 73t205.5 200.5t73 290.5v1343z" />
    <glyph glyph-name="uni0245" unicode="&#x245;" horiz-adv-x="1983" 
d="M1598 0l-625 1821l-55 227h171l740 -2048h-231zM1007 1822l-620 -1822h-230l737 2048h169z" />
    <glyph glyph-name="uni0246" unicode="&#x246;" horiz-adv-x="1671" 
d="M1376 2308l-741 -2568h-172l741 2568h172zM272 0v2048h1188v-168h-1001v-771h938v-168h-938v-773h1021v-168h-1208z" />
    <glyph glyph-name="uni0247" unicode="&#x247;" horiz-adv-x="1622" 
d="M1418 2048l-1097 -2624h-154l1103 2624h148zM856 -32q-215 0 -372 100.5t-242.5 279t-85.5 411.5q0 232 85.5 412.5t237 283t350.5 102.5q125 0 241 -45.5t208.5 -139t146.5 -235t54 -334.5v-88h-1200v157h1018q0 148 -59.5 266.5t-165 187.5t-243.5 69q-146 0 -257 -78
t-173.5 -206t-63.5 -280v-94q0 -183 63.5 -319.5t180.5 -211.5t277 -75q109 0 191.5 34t139 91.5t85.5 126.5l169 -55q-35 -97 -114.5 -179t-198 -131.5t-272.5 -49.5z" />
    <glyph glyph-name="uni0248" unicode="&#x248;" horiz-adv-x="1507" 
d="M1048 2048h187v-1477q-1 -200 -72 -333.5t-196 -199.5t-287 -66q-159 0 -284 59t-196.5 166t-71.5 251h184q0 -91 48 -160.5t131.5 -108.5t188.5 -39q109 0 191.5 46t129.5 141.5t47 243.5v1477zM721 1144v144h840v-144h-840z" />
    <glyph glyph-name="uni0249" unicode="&#x249;" horiz-adv-x="653" 
d="M237 1536h179v-1685q0 -131 -48.5 -226.5t-140.5 -148t-222 -52.5h-20t-22 1l2 167h19h19q110 0 172 68t62 191v1685zM-95 811v144h840v-144h-840zM325 1800q-54 0 -93.5 37.5t-39.5 90.5t39.5 90.5t93.5 37.5q55 0 94.5 -37.5t39.5 -90.5t-39.5 -90.5t-94.5 -37.5z" />
    <glyph glyph-name="uni024A" unicode="&#x24a;" horiz-adv-x="2165" 
d="M1856 2048v-2249q0 -123 57 -169.5t156 -46.5q22 0 44 2t39 5v-155q-25 -7 -58 -8.5t-65 -1.5q-78 0 -142.5 24t-111.5 71t-72.5 117t-25.5 162v592h-12q-82 -205 -245.5 -313.5t-381.5 -108.5q-190 0 -347 77t-272 218t-177 336t-62 429q0 231 62 422.5t176.5 331.5
t273 216.5t349.5 76.5q219 0 382 -107t242 -308h18v387h173zM1041 148q221 0 362.5 112.5t210 311t68.5 455.5q0 252 -71.5 450.5t-213.5 313t-353 114.5q-204 0 -357 -112.5t-238 -311t-85 -454.5q0 -268 86 -465.5t239 -305.5t352 -108z" />
    <glyph glyph-name="uni024B" unicode="&#x24b;" horiz-adv-x="1753" 
d="M1627 -575q-78 0 -142 24t-111 71t-72.5 117t-25.5 162v165h179v-165q0 -82 25.5 -129t73 -67t113.5 -20q21 0 43 2t41 5v-155q-27 -7 -60 -8.5t-64 -1.5zM788 -32q-188 0 -330.5 100t-222 279t-79.5 417q0 237 79.5 415.5t222.5 278t333 99.5q106 0 184 -29t133 -76
t92 -102t60 -107h90l3 -958h-93q-31 -70 -88 -143.5t-151 -123.5t-233 -50zM1455 -101h-179v472l60 386l-55 456v323h174v-1637zM809 131q149 0 254 81.5t160.5 225t55.5 329.5q0 184 -55 325.5t-159.5 222t-255.5 80.5q-154 0 -260 -83.5t-160 -225.5t-54 -319
q0 -179 55 -323t161 -228.5t258 -84.5z" />
    <glyph glyph-name="uni024C" unicode="&#x24c;" horiz-adv-x="1798" 
d="M389 828h-353v171h353v-171zM289 0v2048h662q217 0 364 -78.5t221.5 -217t74.5 -317.5t-74.5 -316t-221 -214t-362.5 -77h-562v171h557q161 0 267 53t159 151t53 232t-53 234.5t-160 155.5t-269 55h-469v-1880h-187zM1192 924l504 -924h-216l-499 924h211z" />
    <glyph glyph-name="uni024D" unicode="&#x24d;" horiz-adv-x="1004" 
d="M235 0v1536h173v-236h13q46 116 160.5 187.5t259.5 71.5q22 0 49 -1t45 -2v-181q-12 2 -42 6t-65 4q-120 0 -213.5 -50.5t-147.5 -139.5t-54 -203v-992h-178zM-95 664v144h840v-144h-840z" />
    <glyph glyph-name="uni024E" unicode="&#x24e;" horiz-adv-x="1826" 
d="M1824 1623v-130h-1821v130h1821zM80 2048h216l607 -972h18l607 972h216l-739 -1161v-887h-186v887z" />
    <glyph glyph-name="uni024F" unicode="&#x24f;" horiz-adv-x="1535" 
d="M1400 1101v-144h-1273v144h1273zM354 -576q-53 0 -99 10t-73 22l48 157q90 -28 161.5 -20.5t126.5 64t97 172.5l57 156l-565 1551h193l456 -1301h13l456 1301h194l-650 -1779q-41 -111 -101.5 -185.5t-139 -111t-174.5 -36.5z" />
    <glyph glyph-name="uni0250" unicode="&#x250;" horiz-adv-x="1567" 
d="M903 1571q139 0 254 -54.5t183 -158t68 -251.5q0 -114 -43 -192t-122 -128t-187 -79t-239 -45q-128 -16 -218 -28t-136.5 -38t-46.5 -84v-36q0 -157 93.5 -247.5t267.5 -90.5q167 0 271.5 73t146.5 172l169 -61q-52 -126 -144 -201.5t-206 -109t-231 -33.5
q-88 0 -183.5 23t-177.5 79.5t-133.5 157t-51.5 254.5v1043h179v-243h11q32 68 94.5 132t158 105t223.5 41zM879 1408q-142 0 -246 -63t-160.5 -167.5t-56.5 -230.5v-222q20 19 66.5 34t106.5 26.5t121 20t107 13.5q130 16 222.5 50t141 93.5t48.5 152.5q0 140 -99.5 216.5
t-250.5 76.5z" />
    <glyph glyph-name="uni0251" unicode="&#x251;" horiz-adv-x="1794" 
d="M793 -32q-194 1 -337.5 103t-222 281.5t-78.5 414.5q0 231 83 409t229.5 279t336.5 101q148 0 258 -59.5t184.5 -169t116.5 -256.5h66l34 -299l177 -772h-168l-173 799q-19 102 -56 207t-95.5 193t-143.5 141t-200 53q-138 0 -244.5 -80t-166.5 -222t-60 -327
q0 -183 57.5 -326.5t161 -225t241.5 -81.5q108 0 193 51t147.5 137t103.5 194t61 220l154 803h168l-157 -772l-32 -307h-59q-46 -162 -129 -271.5t-196.5 -164t-253.5 -53.5z" />
    <glyph glyph-name="uni0252" unicode="&#x252;" horiz-adv-x="1743" 
d="M1579 823v-64q0 -232 -69 -409.5t-202 -278t-323 -100.5q-127 0 -223.5 43.5t-165 125.5t-111 198t-60.5 261l2 305q22 201 92 347.5t190 226t292 79.5q185 0 314 -93.5t197 -259t67 -381.5zM1374 760v63q0 162 -44.5 290t-138 202t-240.5 74q-134 0 -222.5 -67.5
t-143 -183t-86.5 -258.5v-240q27 -137 79.5 -251t140 -182t218.5 -68q151 0 247.5 82.5t143 223.5t46.5 315zM527 0h-173v1189q0 109 -30.5 146.5t-76.5 37.5q-15 0 -28 -2.5t-23 -5.5l-28 151q34 25 70 33t77 8q115 0 179.5 -87.5t64.5 -280.5v-868z" />
    <glyph glyph-name="uni0253" unicode="&#x253;" horiz-adv-x="1705" 
d="M917 -32q-139 0 -232.5 50t-150.5 123.5t-89 143.5h-21v-285h-173v1703q0 92 25 161.5t72 117t111.5 71t142.5 23.5q31 0 64 -1.5t59 -8.5v-155q-18 3 -40 5.5t-43 2.5q-66 0 -113.5 -20t-73.5 -67.5t-26 -128.5v-460h16q31 69 87.5 142t149 122.5t233.5 49.5
q189 0 332 -99.5t222.5 -278t79.5 -415.5q0 -238 -79 -417t-221.5 -279t-331.5 -100zM896 131q153 0 259 84.5t161 228.5t55 323q0 177 -54.5 319t-160.5 225.5t-260 83.5q-150 0 -255 -80.5t-159.5 -222t-54.5 -325.5q0 -186 55 -329.5t160 -225t254 -81.5z" />
    <glyph glyph-name="uni0254" unicode="&#x254;" horiz-adv-x="1487" 
d="M125 456h196q14 -90 69.5 -161.5t141.5 -113t192 -41.5q151 0 247 81.5t142 213.5t46 284v66q0 168 -47 305t-145 218t-252 81q-173 0 -271.5 -105t-122.5 -292h-196q17 173 91.5 300t200.5 196t298 69q209 0 353.5 -100.5t218.5 -275t74 -395.5v-67q0 -206 -75.5 -375.5
t-217.5 -270.5t-343 -101q-162 0 -292.5 66.5t-211.5 176.5t-96 241z" />
    <glyph glyph-name="uni0255" unicode="&#x255;" horiz-adv-x="1563" 
d="M836 -32q-206 0 -359.5 102t-238.5 282t-85 415q0 229 86 407.5t238 280.5t352 102q155 0 280 -60t206 -167.5t102 -249.5h-180q-28 131 -134 223t-271 92q-148 0 -260.5 -79.5t-176 -221t-63.5 -327.5q0 -190 63 -333t176.5 -223t264.5 -80v-163zM138 -45l-129 106
q49 61 118 146.5t158.5 177.5t196 171.5t229.5 129.5t261 50q127 0 215.5 -45.5t134 -124t45.5 -177.5q0 -127 -70.5 -221.5t-191 -147t-269.5 -52.5v163q149 0 249 72t100 181q0 90 -66.5 141t-149.5 51q-97 0 -198 -47t-196.5 -122t-180 -160.5t-150.5 -163t-106 -128.5z
" />
    <glyph glyph-name="uni0256" unicode="&#x256;" horiz-adv-x="1694" 
d="M1627 -575q-78 0 -142 24t-111 71t-72.5 117t-25.5 162v402h179v-402q0 -82 25.5 -129t73 -67t113.5 -20q21 0 43 2t41 5v-155q-27 -7 -60 -8.5t-64 -1.5zM788 -32q-189 0 -331 100t-221.5 279t-79.5 417q0 237 79.5 415.5t222.5 278t333 99.5q140 0 233 -49.5
t149 -122.5t87 -142h16v805h179v-2048h-174v285h-21q-31 -70 -88 -143.5t-150.5 -123.5t-233.5 -50zM809 131q149 0 254 81.5t160.5 225t55.5 329.5q0 184 -55 325.5t-160 222t-255 80.5q-154 0 -259.5 -83.5t-160 -225.5t-54.5 -319q0 -179 55 -323t160.5 -228.5
t258.5 -84.5z" />
    </font>
</defs>
</svg>
