<?xml version="1.0" standalone="no"?>
<!DOCTYPE svg PUBLIC "-//W3C//DTD SVG 1.1//EN" "http://www.w3.org/Graphics/SVG/1.1/DTD/svg11.dtd" >
<svg xmlns="http://www.w3.org/2000/svg" xmlns:xlink="http://www.w3.org/1999/xlink" version="1.1">
<metadata>
Created by FontForge 20201107 at Wed Sep  1 18:46:30 2021
 By 
Copyright 2020 The Inter Project Authors (https://github.com/rsms/inter)
</metadata>
<defs>
<font id="Inter-Medium" horiz-adv-x="0" >
  <font-face 
    font-family="Inter Medium"
    font-weight="500"
    font-stretch="normal"
    units-per-em="2816"
    panose-1="2 0 5 3 0 0 0 2 0 4"
    ascent="2252"
    descent="-564"
    x-height="1536"
    cap-height="2048"
    bbox="-2131 -900 7274 3090"
    underline-thickness="192"
    underline-position="-560"
    unicode-range="U+0020-1F852"
  />
<missing-glyph horiz-adv-x="2852" 
d="M262 -640v512h2328v-512h-2328zM262 1472v512h2328v-512h-2328zM262 2176v512h2328v-512h-2328zM262 64v512h2328v-512h-2328zM262 768v512h2328v-512h-2328z" />
    <glyph glyph-name=".notdef" horiz-adv-x="2852" 
d="M262 -640v512h2328v-512h-2328zM262 1472v512h2328v-512h-2328zM262 2176v512h2328v-512h-2328zM262 64v512h2328v-512h-2328zM262 768v512h2328v-512h-2328z" />
    <glyph glyph-name=".null" 
 />
    <glyph glyph-name="nonmarkingreturn" horiz-adv-x="938" 
 />
    <glyph glyph-name="uni0020" unicode=" " horiz-adv-x="746" 
 />
    <glyph glyph-name="uni0021" unicode="!" horiz-adv-x="827" 
d="M578 2048l-26 -1459h-277l-26 1459h329zM414 -19q-83 0 -142 58.5t-58 141.5q-1 82 58 140.5t142 58.5q81 0 140 -58.5t60 -140.5q-1 -55 -28.5 -100.5t-72.5 -72.5t-99 -27z" />
    <glyph glyph-name="uni0022" unicode="&#x22;" horiz-adv-x="1126" 
d="M428 2048v-729h-248v729h248zM942 2048v-729h-248v729h248z" />
    <glyph glyph-name="uni0023" unicode="#" horiz-adv-x="1794" 
d="M969 0l336 2048h240l-336 -2048h-240zM42 548l39 240h1552l-39 -240h-1552zM249 0l336 2048h240l-336 -2048h-240zM161 1260l39 240h1552l-39 -240h-1552z" />
    <glyph glyph-name="uni0024" unicode="$" horiz-adv-x="1812" 
d="M829 -256v2560h164v-2560h-164zM1342 1510q-16 142 -132 220.5t-292 78.5q-126 0 -218 -39.5t-142.5 -108t-50.5 -155.5q0 -73 34.5 -126t91 -88.5t121.5 -59t125 -38.5l200 -52q98 -24 201 -65t191 -108t142.5 -166t54.5 -237q0 -174 -89.5 -309t-259 -213t-409.5 -78
q-230 0 -398 73t-263 207.5t-105 319.5h310q9 -111 72.5 -184.5t163 -109t218.5 -35.5q131 0 233.5 41.5t161.5 116t59 174.5q0 91 -51.5 149t-139 96t-197.5 67l-242 66q-246 67 -389.5 197t-143.5 344q0 177 96 309t260 205.5t370 73.5q208 0 367.5 -73t251.5 -200.5
t96 -292.5h-298z" />
    <glyph glyph-name="uni0025" unicode="%" horiz-adv-x="2332" 
d="M1266 384v108q0 116 48.5 212.5t142 155t226.5 58.5q136 0 228 -58t139.5 -155t47.5 -213v-108q0 -116 -48 -212.5t-140.5 -155t-226.5 -58.5q-135 0 -228 58.5t-141 155t-48 212.5zM1499 492v-108q0 -86 41 -156t143 -70q101 0 141 70t40 156v108q0 86 -38.5 156
t-142.5 70q-100 0 -142 -70t-42 -156zM236 1556v108q0 116 48.5 213t142 155t226.5 58q136 0 228 -58t139 -155t47 -213v-108q0 -116 -47.5 -212.5t-140 -155t-226.5 -58.5q-136 0 -228.5 58.5t-140.5 155t-48 212.5zM470 1664v-108q0 -86 40.5 -156t142.5 -70
q100 0 140.5 70t40.5 156v108q0 86 -39 156t-142 70q-100 0 -141.5 -70t-41.5 -156zM331 0l1408 2048h239l-1408 -2048h-239z" />
    <glyph glyph-name="uni0026" unicode="&#x26;" horiz-adv-x="1833" 
d="M797 -29q-206 0 -354.5 75t-228.5 204.5t-80 293.5q0 125 52 222.5t145 180.5t215 167l330 233q84 55 131 116.5t47 152.5q0 72 -62 138t-166 66q-72 0 -126.5 -35t-85 -89.5t-30.5 -114.5q0 -70 38.5 -141t99.5 -146.5t128 -156.5l951 -1137h-338l-787 925
q-99 117 -184 220.5t-137.5 210t-52.5 230.5q0 141 64.5 250.5t180.5 171.5t272 62q158 0 271.5 -61.5t175 -163t61.5 -221.5q0 -146 -72.5 -257.5t-199.5 -204.5l-411 -303q-120 -88 -166.5 -173.5t-46.5 -133.5q0 -88 45.5 -163t128 -120t193.5 -45q114 0 222.5 49.5
t197 142.5t140.5 223t52 291h270q0 -198 -45 -334.5t-108.5 -222t-119.5 -133.5q-18 -16 -34 -32t-34 -32q-104 -105 -251.5 -155t-290.5 -50z" />
    <glyph glyph-name="uni0027" unicode="'" horiz-adv-x="612" 
d="M428 2048v-729h-248v729h248z" />
    <glyph glyph-name="uni0028" unicode="(" horiz-adv-x="1064" 
d="M288 850q0 376 99 692t289 583h274q-74 -99 -138 -243t-112 -315.5t-75 -355t-27 -361.5q0 -238 47 -482t127 -453t178 -341h-274q-190 267 -289 583t-99 693z" />
    <glyph glyph-name="uni0029" unicode=")" horiz-adv-x="1064" 
d="M776 850q0 -377 -99 -693t-289 -583h-274q74 99 138 243t112 315.5t75 355.5t27 362q0 237 -47 481t-127 453t-178 341h274q190 -267 289 -583t99 -692z" />
    <glyph glyph-name="uni002A" unicode="*" horiz-adv-x="1469" 
d="M626 896l19 422l-356 -229l-109 190l378 193l-378 193l109 190l356 -229l-19 422h217l-19 -422l356 229l109 -190l-378 -193l378 -193l-109 -190l-356 229l19 -422h-217z" />
    <glyph glyph-name="uni002B" unicode="+" horiz-adv-x="1875" 
d="M803 130v1352h269v-1352h-269zM262 672v269h1352v-269h-1352z" />
    <glyph glyph-name="uni002C" unicode="," horiz-adv-x="810" 
d="M590 280l-15 -109q-15 -120 -50.5 -250.5t-73 -242.5t-61.5 -178h-212q13 62 36 167.5t45 235.5t33 265l10 112h288z" />
    <glyph glyph-name="uni002D" unicode="-" horiz-adv-x="1304" 
d="M1106 995v-259h-908v259h908z" />
    <glyph glyph-name="uni002E" unicode="." horiz-adv-x="797" 
d="M398 -19q-82 0 -141 58.5t-59 141.5q0 82 59 140.5t141 58.5t141 -58.5t59 -140.5q0 -55 -27.5 -100.5t-72.5 -72.5t-100 -27z" />
    <glyph glyph-name="uni002F" unicode="/" horiz-adv-x="1035" 
d="M981 2144l-660 -2452h-267l660 2452h267z" />
    <glyph glyph-name="uni0030" unicode="0" horiz-adv-x="1819" 
d="M910 -34q-237 1 -405 125t-257 361t-89 571q0 333 89.5 569t258 360t403.5 124t403 -124.5t257.5 -360t89.5 -568.5q0 -335 -89 -571.5t-257 -361t-404 -124.5zM910 233q208 0 325.5 203t117.5 587q0 255 -53.5 431.5t-153 268t-236.5 91.5q-207 0 -325 -204t-119 -587
q0 -256 53.5 -432.5t152.5 -267t238 -90.5z" />
    <glyph glyph-name="uni0031" unicode="1" horiz-adv-x="1331" 
d="M974 2048v-2048h-310v1738h-12l-490 -320v296l511 334h301z" />
    <glyph glyph-name="uni0032" unicode="2" horiz-adv-x="1727" 
d="M197 0v224l693 718q111 117 183.5 205.5t108.5 168.5t36 170q0 102 -48 176.5t-131 115t-187 40.5q-110 0 -192 -45t-126 -127t-44 -192h-295q0 187 86 327t236 217.5t341 77.5q193 0 340.5 -76.5t230.5 -208t83 -296.5q0 -114 -42.5 -223t-147.5 -242.5t-292 -323.5
l-407 -426v-15h922v-265h-1348z" />
    <glyph glyph-name="uni0033" unicode="3" horiz-adv-x="1814" 
d="M910 -28q-206 0 -367.5 71t-255 197.5t-100.5 293.5h314q6 -91 61.5 -157.5t145.5 -102.5t200 -36q121 0 214.5 42t146.5 117.5t53 174.5q0 103 -52.5 181.5t-153 123.5t-242.5 45h-173v252h173q114 0 200.5 41t135.5 114.5t49 172.5q0 95 -42.5 165.5t-120 110.5
t-182.5 40q-100 0 -186.5 -36.5t-140.5 -104t-58 -161.5h-299q5 166 98.5 292t247.5 197t342 71q197 0 340.5 -76.5t222 -203.5t77.5 -278q1 -172 -95.5 -292t-256.5 -161v-16q204 -31 316.5 -162t111.5 -325q1 -169 -93.5 -303t-257.5 -210.5t-373 -76.5z" />
    <glyph glyph-name="uni0034" unicode="4" horiz-adv-x="1842" 
d="M154 400v250l885 1398h197v-368h-125l-633 -1002v-16h1213v-262h-1537zM1125 0v476l2 114v1458h293v-2048h-295z" />
    <glyph glyph-name="uni0035" unicode="5" horiz-adv-x="1746" 
d="M873 -28q-188 0 -337.5 72.5t-238.5 199.5t-95 290h300q11 -132 117 -217t254 -85q118 0 209.5 54.5t144 150.5t52.5 219q0 125 -54 223t-148.5 154t-216.5 57q-93 0 -187 -32t-152 -84l-283 42l115 1032h1126v-265h-869l-65 -573h12q60 58 159.5 97t213.5 39
q187 0 333.5 -89t231 -242.5t83.5 -352.5q1 -199 -89.5 -355t-250 -245.5t-365.5 -89.5z" />
    <glyph glyph-name="uni0036" unicode="6" horiz-adv-x="1790" 
d="M912 -28q-137 2 -269.5 50t-240.5 160t-172.5 301t-64.5 472q0 268 53.5 476t154.5 351.5t244 218.5t321 75q183 0 325 -72t230.5 -199t112.5 -289h-305q-31 128 -123 209t-240 81q-225 0 -350.5 -196t-126.5 -545h15q53 87 130.5 148.5t174 95t203.5 33.5
q178 0 322.5 -86.5t230.5 -238.5t86 -348t-88.5 -355t-248.5 -251.5t-374 -90.5zM911 232q118 0 211 58t147 156t54 219q0 118 -52.5 215t-144 154t-208.5 57q-89 0 -164.5 -34t-132.5 -94t-89.5 -137.5t-32.5 -163.5q0 -115 53.5 -213t147 -157.5t211.5 -59.5z" />
    <glyph glyph-name="uni0037" unicode="7" horiz-adv-x="1630" 
d="M266 0l894 1768v15h-1034v265h1354v-274l-891 -1774h-323z" />
    <glyph glyph-name="uni0038" unicode="8" horiz-adv-x="1778" 
d="M889 -28q-215 0 -379.5 74t-257.5 204t-92 296q-1 130 53.5 239.5t148.5 183t210 93.5v12q-153 37 -245 164t-91 292q-1 157 83.5 280.5t232.5 194.5t337 71q187 0 334.5 -71.5t232.5 -195t86 -279.5q-1 -165 -94 -292t-242 -164v-12q115 -20 207.5 -93.5t148 -183
t56.5 -239.5q-1 -166 -94 -296t-257.5 -204t-377.5 -74zM889 225q127 0 220 42.5t144 119t52 179.5q-1 107 -55.5 189t-147.5 129t-213 47q-121 0 -215 -47t-148 -129t-53 -189q-1 -103 49.5 -179.5t144.5 -119t222 -42.5zM889 1178q102 0 181 41t124.5 114t46.5 171
q-1 96 -45.5 168t-123.5 111.5t-183 39.5q-106 0 -185.5 -39.5t-123.5 -111.5t-43 -168q-1 -98 44 -171t124.5 -114t183.5 -41z" />
    <glyph glyph-name="uni0039" unicode="9" horiz-adv-x="1790" 
d="M878 2076q137 -1 270 -50t240.5 -160t172 -299.5t65.5 -468.5q0 -269 -54 -478.5t-154.5 -353.5t-243.5 -219t-322 -75q-183 0 -325 72t-231 199.5t-111 293.5h305q30 -132 122.5 -213.5t239.5 -81.5q225 0 351 196.5t127 549.5h-16q-52 -86 -129.5 -148t-173.5 -96
t-205 -34q-177 0 -322 87t-231 239t-86 347q0 194 88.5 352t248 250.5t374.5 90.5zM879 1816q-117 0 -210.5 -57.5t-147.5 -155t-54 -216.5t52.5 -215.5t144 -153t209.5 -56.5q88 0 164 34t133 94.5t89 137.5t32 162q0 113 -53.5 210t-146.5 156.5t-212 59.5z" />
    <glyph glyph-name="uni003A" unicode=":" horiz-adv-x="797" 
d="M398 -19q-82 0 -141 58.5t-59 141.5q0 82 59 140.5t141 58.5t141 -58.5t59 -140.5q0 -55 -27.5 -100.5t-72.5 -72.5t-100 -27zM398 1099q-82 0 -141 59t-59 141t59 140.5t141 58.5t141 -58.5t59 -140.5q0 -55 -27.5 -100.5t-72.5 -72.5t-100 -27z" />
    <glyph glyph-name="uni003B" unicode=";" horiz-adv-x="810" 
d="M590 280l-15 -109q-15 -120 -50.5 -250.5t-73 -242.5t-61.5 -178h-212q13 62 36 167.5t45 235.5t33 265l10 112h288zM434 1099q-82 0 -141 59t-59 141t59 140.5t141 58.5t141 -58.5t59 -140.5q0 -55 -27.5 -100.5t-72.5 -72.5t-100 -27z" />
    <glyph glyph-name="uni003C" unicode="&#x3c;" horiz-adv-x="1875" 
d="M274 694v224l1328 644v-305l-980 -447l9 18v-43l-9 17l980 -446v-306z" />
    <glyph glyph-name="uni003D" unicode="=" horiz-adv-x="1875" 
d="M297 983v263h1281v-263h-1281zM297 367v263h1281v-263h-1281z" />
    <glyph glyph-name="uni003E" unicode="&#x3e;" horiz-adv-x="1875" 
d="M1602 694l-1328 -644v306l980 446l-10 -17v43l10 -18l-980 447v305l1328 -644v-224z" />
    <glyph glyph-name="uni003F" unicode="?" horiz-adv-x="1480" 
d="M528 589v19q2 186 37.5 296t101.5 178t159 124q60 38 108 85t76 108t28 135q0 89 -42 154t-111.5 100.5t-154.5 35.5q-77 0 -147 -32t-116 -99.5t-53 -173.5h-304q7 180 91 304.5t222.5 188.5t306.5 64q184 0 322 -68.5t214.5 -191t76.5 -285.5q0 -112 -35 -201.5
t-99.5 -159.5t-154.5 -124q-85 -53 -137.5 -110t-76.5 -135t-26 -193v-19h-286zM679 -19q-82 0 -141 58.5t-59 141.5q0 82 59 140.5t141 58.5q81 0 140.5 -58.5t59.5 -140.5q0 -55 -27.5 -100.5t-72.5 -72.5t-100 -27z" />
    <glyph glyph-name="uni0040" unicode="@" horiz-adv-x="2725" 
d="M1434 -557q-310 0 -549.5 84.5t-403.5 248t-249 400.5t-85 541q0 296 86 532t250.5 402.5t400.5 254.5t536 88q287 0 506 -90t368.5 -247t225.5 -360t76 -429q0 -158 -20 -308.5t-73.5 -272t-154 -194t-260.5 -75.5q-85 -3 -165 20t-136 74.5t-68 131.5h-12
q-24 -59 -80 -109.5t-142.5 -80t-200.5 -24.5q-126 5 -227 57t-172.5 144t-109.5 218t-38 280q0 148 43 265.5t117.5 203t171.5 135.5t205 63q105 12 193 -6t146.5 -55t73.5 -81h13v112h246v-928q0 -79 41.5 -134t118.5 -55q91 0 142.5 67t73 206t21.5 356
q0 152 -40.5 286.5t-119 244t-192.5 188.5t-259.5 122t-321.5 43q-239 0 -425 -73.5t-313.5 -211.5t-193 -330.5t-65.5 -431.5q0 -249 67 -441.5t198 -324.5t324 -200.5t445 -68.5q112 0 220 19.5t192.5 44t126.5 39.5l70 -219q-62 -29 -164.5 -57t-222 -46t-235.5 -18z
M1342 275q130 0 209.5 52t115 155.5t35.5 259.5q-1 152 -38.5 242.5t-116 130t-201.5 39.5q-113 0 -192.5 -55t-121 -149t-42.5 -209q1 -121 34.5 -227.5t110 -172.5t207.5 -66z" />
    <glyph glyph-name="uni0041" unicode="A" horiz-adv-x="1971" 
d="M398 0h-328l737 2048h357l737 -2048h-328l-579 1676h-16zM453 802h1064v-260h-1064v260z" />
    <glyph glyph-name="uni0042" unicode="B" horiz-adv-x="1842" 
d="M225 0v2048h750q218 0 361 -71.5t214 -193t71 -273.5q0 -128 -47 -215.5t-125.5 -140t-172.5 -76.5v-20q102 -5 199.5 -65.5t161.5 -171.5t64 -270q0 -157 -73.5 -281.5t-226.5 -197t-391 -72.5h-785zM534 265h446q222 0 318 86t96 215q0 97 -49 178t-139.5 129
t-214.5 48h-457v-656zM534 1162h414q104 0 187.5 40t133 112.5t49.5 171.5q0 127 -89 213t-273 86h-422v-623z" />
    <glyph glyph-name="uni0043" unicode="C" horiz-adv-x="2071" 
d="M1926 1382h-312q-18 100 -67 176t-120 129t-158.5 80t-185.5 27q-177 0 -316.5 -89t-220 -261t-80.5 -420q0 -250 80.5 -422t220.5 -260t315 -88q97 0 184.5 26.5t158.5 78.5t120.5 127.5t68.5 173.5l312 -1q-25 -151 -96.5 -277.5t-183 -218t-254.5 -141.5t-312 -50
q-266 0 -474 126.5t-327.5 362.5t-119.5 563q0 328 120 563.5t328 362t473 126.5q163 0 304.5 -46.5t254.5 -136t187 -218t100 -293.5z" />
    <glyph glyph-name="uni0044" unicode="D" horiz-adv-x="2032" 
d="M888 0h-663v2048h684q301 0 517 -122.5t331.5 -351t115.5 -547.5q0 -320 -116.5 -550t-336.5 -353.5t-532 -123.5zM534 270h337q234 0 389 88.5t232 257t77 411.5q0 241 -76.5 409t-227.5 255t-375 87h-356v-1508z" />
    <glyph glyph-name="uni0045" unicode="E" horiz-adv-x="1698" 
d="M225 0v2048h1284v-266h-975v-624h908v-265h-908v-627h987v-266h-1296z" />
    <glyph glyph-name="uni0046" unicode="F" horiz-adv-x="1650" 
d="M225 0v2048h1270v-266h-961v-624h870v-265h-870v-893h-309z" />
    <glyph glyph-name="uni0047" unicode="G" horiz-adv-x="2109" 
d="M1611 1401q-29 91 -77.5 163.5t-115.5 124t-152.5 78.5t-187.5 27q-173 0 -312 -89t-219.5 -260.5t-80.5 -419.5q0 -249 81 -421t222 -261t321 -89q167 0 291.5 68t193 192.5t68.5 293.5l80 -15h-586v255h805v-233q0 -258 -109.5 -447.5t-302 -292.5t-440.5 -103
q-278 0 -487.5 128t-326.5 363.5t-117 559.5q0 245 68 440t191.5 331.5t291 209t366.5 72.5q166 0 309.5 -49t256 -139t186.5 -213.5t100 -273.5h-317z" />
    <glyph glyph-name="uni0048" unicode="H" horiz-adv-x="2090" 
d="M225 0v2048h309v-890h1021v890h310v-2048h-310v893h-1021v-893h-309z" />
    <glyph glyph-name="uni0049" unicode="I" horiz-adv-x="759" 
d="M534 2048v-2048h-309v2048h309z" />
    <glyph glyph-name="uni004A" unicode="J" horiz-adv-x="1554" 
d="M1021 2048h308v-1452q0 -197 -77.5 -337t-217.5 -213.5t-328 -73.5q-173 0 -310.5 63t-217 183.5t-79.5 293.5h307q0 -85 39.5 -147t109 -96.5t159.5 -34.5q98 0 166.5 41.5t104.5 122.5t36 198v1452z" />
    <glyph glyph-name="uni004B" unicode="K" horiz-adv-x="1871" 
d="M225 0v2048h309v-978h25l859 978h389l-826 -922l829 -1126h-372l-662 915l-242 -278v-637h-309z" />
    <glyph glyph-name="uni004C" unicode="L" horiz-adv-x="1589" 
d="M225 0v2048h309v-1782h928v-266h-1237z" />
    <glyph glyph-name="uni004D" unicode="M" horiz-adv-x="2528" 
d="M225 2048h375l652 -1592h24l652 1592h375v-2048h-294v1482h-19l-604 -1479h-244l-604 1480h-19v-1483h-294v2048z" />
    <glyph glyph-name="uni004E" unicode="N" horiz-adv-x="2103" 
d="M1878 2048v-2048h-284l-1041 1502h-19v-1502h-309v2048h286l1042 -1504h19v1504h306z" />
    <glyph glyph-name="uni004F" unicode="O" horiz-adv-x="2163" 
d="M2004 1024q0 -328 -120 -563.5t-328.5 -362t-473.5 -126.5q-266 0 -474.5 126.5t-328.5 362.5t-120 563q0 328 120 563.5t328.5 362t474.5 126.5q265 0 473.5 -126.5t328.5 -362t120 -563.5zM1698 1024q0 250 -80.5 421.5t-220 260t-315.5 88.5q-177 0 -316 -88.5
t-219.5 -260t-80.5 -421.5t80.5 -421.5t219.5 -260t316 -88.5q176 0 315.5 88.5t220 260t80.5 421.5z" />
    <glyph glyph-name="uni0050" unicode="P" horiz-adv-x="1800" 
d="M225 0v2048h730q239 0 396 -87t235 -237.5t78 -338.5q0 -189 -78.5 -339.5t-236 -238t-395.5 -87.5h-502v262h474q151 0 245 52.5t138 143.5t44 207t-44 206t-138.5 141t-248.5 51h-388v-1783h-309z" />
    <glyph glyph-name="uni0051" unicode="Q" horiz-adv-x="2164" 
d="M978 664h304l214 -279l101 -124l341 -445h-316l-228 297l-78 108zM2004 1024q0 -328 -120 -563.5t-328.5 -362t-473.5 -126.5q-266 0 -474.5 126.5t-328.5 362.5t-120 563q0 328 120 563.5t328.5 362t474.5 126.5q265 0 473.5 -126.5t328.5 -362t120 -563.5zM1698 1024
q0 250 -80.5 421.5t-220 260t-315.5 88.5q-177 0 -316 -88.5t-219.5 -260t-80.5 -421.5t80.5 -421.5t219.5 -260t316 -88.5q176 0 315.5 88.5t220 260t80.5 421.5z" />
    <glyph glyph-name="uni0052" unicode="R" horiz-adv-x="1816" 
d="M225 0v2048h730q238 0 395.5 -82t235.5 -226.5t78 -333.5q0 -188 -78.5 -330.5t-236 -221.5t-395.5 -79h-553v266h525q150 0 244.5 43t138.5 125t44 197q0 116 -44.5 201t-139 130.5t-247.5 45.5h-388v-1783h-309zM1236 924l506 -924h-352l-496 924h342z" />
    <glyph glyph-name="uni0053" unicode="S" horiz-adv-x="1812" 
d="M1342 1510q-16 142 -132 220.5t-292 78.5q-126 0 -218 -39.5t-142.5 -108t-50.5 -155.5q0 -73 34.5 -126t91 -88.5t121.5 -59t125 -38.5l200 -52q98 -24 201 -65t191 -108t142.5 -166t54.5 -237q0 -174 -89.5 -309t-259 -213t-409.5 -78q-230 0 -398 73t-263 207.5
t-105 319.5h310q9 -111 72.5 -184.5t163 -109t218.5 -35.5q131 0 233.5 41.5t161.5 116t59 174.5q0 91 -51.5 149t-139 96t-197.5 67l-242 66q-246 67 -389.5 197t-143.5 344q0 177 96 309t260 205.5t370 73.5q208 0 367.5 -73t251.5 -200.5t96 -292.5h-298z" />
    <glyph glyph-name="uni0054" unicode="T" horiz-adv-x="1833" 
d="M124 1782v266h1585v-266h-639v-1782h-308v1782h-638z" />
    <glyph glyph-name="uni0055" unicode="U" horiz-adv-x="2077" 
d="M1542 2048h310v-1347q0 -215 -101 -380.5t-284 -260t-429 -94.5q-245 0 -428 94.5t-284 260t-101 380.5v1347h309v-1322q0 -139 61.5 -247t174.5 -169.5t268 -61.5q156 0 269.5 61.5t174 169.5t60.5 247v1322z" />
    <glyph glyph-name="uni0056" unicode="V" horiz-adv-x="1971" 
d="M404 2048l570 -1668h23l570 1668h334l-737 -2048h-357l-737 2048h334z" />
    <glyph glyph-name="uni0057" unicode="W" horiz-adv-x="2754" 
d="M626 0l-568 2048h325l399 -1586h19l415 1586h322l415 -1587h19l398 1587h326l-569 -2048h-311l-431 1534h-16l-431 -1534h-312z" />
    <glyph glyph-name="uni0058" unicode="X" horiz-adv-x="1876" 
d="M440 2048l490 -801h16l490 801h358l-638 -1024l642 -1024h-360l-492 790h-16l-492 -790h-360l653 1024l-649 1024h358z" />
    <glyph glyph-name="uni0059" unicode="Y" horiz-adv-x="1928" 
d="M67 2048h351l535 -931h22l535 931h351l-743 -1244v-804h-308v804z" />
    <glyph glyph-name="uni005A" unicode="Z" horiz-adv-x="1799" 
d="M172 0v206l1077 1576h-1086v266h1464v-206l-1077 -1576h1086v-266h-1464z" />
    <glyph glyph-name="uni005B" unicode="[" horiz-adv-x="1064" 
d="M321 -426v2551h657v-237h-371v-2077h371v-237h-657z" />
    <glyph glyph-name="uni005C" unicode="\" horiz-adv-x="1035" 
d="M714 -308l-660 2452h267l660 -2452h-267z" />
    <glyph glyph-name="uni005D" unicode="]" horiz-adv-x="1064" 
d="M743 2125v-2551h-657v237h371v2077h-371v237h657z" />
    <glyph glyph-name="uni005E" unicode="^" horiz-adv-x="1338" 
d="M633 1857h72v-103h-72v103zM106 1120l415 870h296l415 -870h-265l-309 674h22l-306 -674h-268z" />
    <glyph glyph-name="uni005F" unicode="_" horiz-adv-x="1295" 
d="M1298 0v-254h-1301v254h1301z" />
    <glyph glyph-name="uni0060" unicode="`" horiz-adv-x="1400" 
d="M735 1741l-309 461h315l233 -461h-239z" />
    <glyph glyph-name="uni0061" unicode="a" horiz-adv-x="1603" 
d="M648 -34q-146 0 -264 54.5t-186.5 158.5t-68.5 255q0 130 50 214t135 133t190 74t214 38q138 16 224 26.5t125 34.5t39 78v7q0 131 -73.5 203t-218.5 72q-151 0 -237.5 -66.5t-119.5 -147.5l-281 64q50 140 146.5 226.5t222.5 126t265 39.5q92 0 195.5 -21.5t194 -78.5
t148.5 -162.5t58 -273.5v-1020h-292v210h-12q-29 -58 -87 -114t-149 -93t-218 -37zM713 206q124 0 212.5 49t135 128.5t46.5 170.5v198q-16 -16 -61.5 -29.5t-103.5 -23t-113 -17t-92 -12.5q-87 -11 -158.5 -37t-114 -74.5t-42.5 -128.5q0 -111 82 -167.5t209 -56.5z" />
    <glyph glyph-name="uni0062" unicode="b" horiz-adv-x="1762" 
d="M225 0v2048h299v-761h18q26 48 75 111t136 110.5t230 47.5q186 0 332 -94t229.5 -271t83.5 -426t-83 -426.5t-228 -273t-331 -95.5q-140 0 -228.5 47t-138.5 110t-77 112h-25v-239h-292zM518 768q0 -162 47 -284t136 -190.5t218 -68.5q134 0 224 71.5t136.5 194.5
t46.5 277q0 152 -45.5 273t-136 191t-225.5 70q-130 0 -219.5 -67t-135.5 -187t-46 -280z" />
    <glyph glyph-name="uni0063" unicode="c" horiz-adv-x="1599" 
d="M848 -31q-223 0 -383.5 101.5t-246.5 280.5t-86 410q0 234 88 413.5t248 280.5t377 101q175 0 312 -64.5t221.5 -180.5t100.5 -271h-291q-24 108 -109.5 186t-228.5 78q-125 0 -218.5 -65.5t-145.5 -186t-52 -284.5q0 -168 51 -290t144.5 -189t220.5 -67q85 0 154.5 31.5
t117 90.5t66.5 142h291q-16 -149 -97 -266t-216.5 -184t-317.5 -67z" />
    <glyph glyph-name="uni0064" unicode="d" horiz-adv-x="1762" 
d="M776 -30q-186 0 -331.5 95.5t-228 273t-82.5 426.5t83.5 426t229.5 271t331 94q143 0 230.5 -47.5t136 -110.5t75.5 -111h18v761h299v-2048h-292v239h-25q-27 -49 -77.5 -112t-138.5 -110t-228 -47zM842 225q129 0 218.5 68.5t136 190.5t46.5 284q0 160 -46 280t-135 187
t-220 67q-135 0 -225 -70t-135.5 -191t-45.5 -273q0 -154 46 -277t136.5 -194.5t223.5 -71.5z" />
    <glyph glyph-name="uni0065" unicode="e" horiz-adv-x="1654" 
d="M863 -31q-227 0 -390.5 97.5t-252 275t-88.5 416.5q0 236 88.5 416t248 281t373.5 101q130 0 252 -43t219 -135t153 -238.5t56 -355.5v-106h-1221v224h928q0 118 -48 209.5t-134.5 144.5t-202.5 53q-126 0 -219.5 -61.5t-144 -160t-50.5 -213.5v-175q0 -154 54.5 -262
t152.5 -164.5t229 -56.5q85 0 155 24.5t121 73.5t78 121l283 -51q-34 -125 -121.5 -218.5t-219 -145t-299.5 -51.5z" />
    <glyph glyph-name="uni0066" unicode="f" horiz-adv-x="1039" 
d="M932 1536v-240h-868v240h868zM302 0v1714q0 144 63 239.5t167 143t226 47.5q90 0 154 -14.5t95 -26.5l-70 -242q-21 6 -54 14.5t-80 8.5q-109 0 -155.5 -54t-46.5 -156v-1674h-299z" />
    <glyph glyph-name="uni0067" unicode="g" horiz-adv-x="1738" 
d="M845 -608q-183 0 -314.5 48t-214.5 127t-124 173l257 106q27 -44 72.5 -93.5t124 -84.5t202.5 -35q170 0 281 82.5t111 262.5v302h-19q-27 -49 -77.5 -109t-138.5 -104t-229 -44q-182 0 -327.5 85.5t-230 253t-84.5 412.5t83.5 420t229.5 268.5t331 93.5q143 0 231 -47.5
t137.5 -110.5t76.5 -111h22v249h293v-1570q0 -198 -92 -325t-248.5 -188t-352.5 -61zM842 271q129 0 218.5 60.5t136 174t46.5 272.5q0 155 -46 273t-135 184.5t-220 66.5q-135 0 -225 -69.5t-135.5 -188.5t-45.5 -266q0 -151 46 -265t136.5 -178t223.5 -64z" />
    <glyph glyph-name="uni0068" unicode="h" horiz-adv-x="1695" 
d="M500 912v-912h-299v2048h295v-762h19q54 124 165 197t290 73q158 0 276.5 -65t184 -193.5t65.5 -320.5v-977h-299v941q0 169 -87 262.5t-242 93.5q-106 0 -189.5 -45t-131 -131.5t-47.5 -208.5z" />
    <glyph glyph-name="uni0069" unicode="i" horiz-adv-x="701" 
d="M201 0v1536h299v-1536h-299zM352 1773q-78 0 -133.5 52.5t-55.5 125.5q0 74 55.5 126.5t133.5 52.5t133.5 -52.5t55.5 -126.5q0 -73 -55.5 -125.5t-133.5 -52.5z" />
    <glyph glyph-name="uni006A" unicode="j" horiz-adv-x="701" 
d="M201 1536h299v-1636q0 -154 -55.5 -260t-164 -161t-267.5 -55h-30.5t-30.5 1v257h24.5h23.5q106 0 153.5 56.5t47.5 163.5v1634zM349 1773q-78 0 -133.5 52.5t-55.5 125.5q0 74 55.5 126.5t133.5 52.5t133.5 -52.5t55.5 -126.5q0 -73 -55.5 -125.5t-133.5 -52.5z" />
    <glyph glyph-name="uni006B" unicode="k" horiz-adv-x="1567" 
d="M476 521l-2 365h52l612 650h358l-698 -740h-47zM201 0v2048h299v-2048h-299zM1171 0l-550 730l206 209l711 -939h-367z" />
    <glyph glyph-name="uni006C" unicode="l" horiz-adv-x="701" 
d="M500 2048v-2048h-299v2048h299z" />
    <glyph glyph-name="uni006D" unicode="m" horiz-adv-x="2488" 
d="M201 0v1536h287v-250h19q48 127 157 198.5t261 71.5q154 0 258.5 -72t154.5 -198h16q55 123 175 196.5t286 73.5q209 0 341.5 -131t132.5 -395v-1030h-299v1002q0 156 -85 226t-203 70q-146 0 -227 -89.5t-81 -229.5v-979h-298v1021q0 125 -78 201t-203 76
q-85 0 -156.5 -44.5t-115 -123.5t-43.5 -183v-947h-299z" />
    <glyph glyph-name="uni006E" unicode="n" horiz-adv-x="1682" 
d="M500 912v-912h-299v1536h287v-250h19q53 122 166.5 196t286.5 74q157 0 275 -65.5t183 -194.5t65 -319v-977h-299v941q0 167 -87 261.5t-239 94.5q-104 0 -184.5 -45t-127 -131.5t-46.5 -208.5z" />
    <glyph glyph-name="uni006F" unicode="o" horiz-adv-x="1696" 
d="M848 -31q-216 0 -377 99t-250 277t-89 416q0 239 89 418t250 278t377 99t377 -99t250 -278t89 -418q0 -238 -89 -416t-250 -277t-377 -99zM849 220q140 0 232 74t136.5 197t44.5 271q0 147 -44.5 270.5t-136.5 198.5t-232 75q-141 0 -233.5 -75t-137 -198.5t-44.5 -270.5
q0 -148 44.5 -271t137 -197t233.5 -74z" />
    <glyph glyph-name="uni0070" unicode="p" horiz-adv-x="1738" 
d="M201 -576v2112h292v-249h25q26 48 75 111t136 110.5t230 47.5q186 0 332 -94t229.5 -271t83.5 -426t-83 -426.5t-228 -273t-331 -95.5q-140 0 -228.5 47t-138.5 110t-77 112h-18v-815h-299zM494 768q0 -162 47 -284t136 -190.5t218 -68.5q134 0 224 71.5t136.5 194.5
t46.5 277q0 152 -45.5 273t-136 191t-225.5 70q-130 0 -219.5 -67t-135.5 -187t-46 -280z" />
    <glyph glyph-name="uni0071" unicode="q" horiz-adv-x="1738" 
d="M1238 -576v815h-18q-27 -49 -77.5 -112t-138.5 -110t-228 -47q-186 0 -331.5 95.5t-228 273t-82.5 426.5t83.5 426t229.5 271t331 94q143 0 230.5 -47.5t136 -110.5t75.5 -111h25v249h292v-2112h-299zM842 225q129 0 218.5 68.5t136 190.5t46.5 284q0 160 -46 280
t-135 187t-220 67q-135 0 -225 -70t-135.5 -191t-45.5 -273q0 -154 46 -277t136.5 -194.5t223.5 -71.5z" />
    <glyph glyph-name="uni0072" unicode="r" horiz-adv-x="1082" 
d="M201 0v1536h289v-244h16q42 124 148.5 195.5t241.5 71.5q28 0 66.5 -2t60.5 -5v-286q-18 5 -64 11.5t-92 6.5q-106 0 -188.5 -44.5t-130.5 -123t-48 -178.5v-938h-299z" />
    <glyph glyph-name="uni0073" unicode="s" horiz-adv-x="1509" 
d="M1352 1161l-271 -48q-17 52 -53.5 99t-98.5 77t-155 30q-127 0 -212 -56.5t-85 -145.5q0 -77 57 -124t184 -77l244 -56q212 -49 316 -151t104 -265q0 -138 -79.5 -245.5t-221 -168.5t-327.5 -61q-258 0 -421 110.5t-200 314.5l289 44q27 -113 111 -170.5t219 -57.5
q147 0 235 61.5t88 150.5q0 72 -53.5 121t-163.5 74l-260 57q-215 49 -317.5 156t-102.5 271q0 136 76 238t210 159.5t307 57.5q249 0 392 -107.5t189 -287.5z" />
    <glyph glyph-name="uni0074" unicode="t" horiz-adv-x="1047" 
d="M918 1536v-240h-839v240h839zM304 1904h299v-1453q0 -87 26 -130.5t67.5 -59t90.5 -15.5q36 0 63 5t42 8l54 -247q-26 -10 -74 -20.5t-120 -11.5q-118 -2 -220 42t-165 136t-63 231v1515z" />
    <glyph glyph-name="uni0075" unicode="u" horiz-adv-x="1674" 
d="M1174 637v899h300v-1536h-294v266h-16q-53 -123 -169.5 -204.5t-289.5 -81.5q-148 0 -261.5 65.5t-178 194.5t-64.5 319v977h299v-941q0 -157 87 -250t226 -93q84 0 167.5 42t139 127t54.5 216z" />
    <glyph glyph-name="uni0076" unicode="v" horiz-adv-x="1595" 
d="M1515 1536l-557 -1536h-320l-558 1536h321l389 -1182h16l388 1182h321z" />
    <glyph glyph-name="uni0077" unicode="w" horiz-adv-x="2323" 
d="M534 0l-452 1536h309l301 -1128h15l302 1128h309l300 -1123h15l299 1123h309l-451 -1536h-305l-312 1109h-23l-312 -1109h-304z" />
    <glyph glyph-name="uni0078" unicode="x" horiz-adv-x="1552" 
d="M437 1536l339 -598l342 598h327l-479 -768l483 -768h-327l-346 574l-345 -574h-328l478 768l-472 768h328z" />
    <glyph glyph-name="uni0079" unicode="y" horiz-adv-x="1595" 
d="M390 -576q-67 0 -122 10.5t-82 22.5l72 245q82 -22 146 -19t113.5 48t87.5 147l37 102l-562 1556h320l389 -1192h16l389 1192h321l-633 -1741q-44 -120 -112 -203.5t-162 -125.5t-218 -42z" />
    <glyph glyph-name="uni007A" unicode="z" horiz-adv-x="1553" 
d="M169 0v205l832 1057v14h-805v260h1178v-218l-800 -1044v-14h828v-260h-1233z" />
    <glyph glyph-name="uni007B" unicode="{" horiz-adv-x="1064" 
d="M98 844v150q169 0 236 69.5t67 230.5v287q0 153 34.5 257.5t105.5 167.5t180 91t257 28v-237q-116 0 -181 -34t-90.5 -105.5t-25.5 -182.5v-364q0 -77 -23 -142.5t-85 -113.5t-177 -75t-298 -27zM978 -426q-148 0 -257 28t-180 91t-105.5 167.5t-34.5 257.5v288
q0 160 -67 230t-236 70v149q183 0 298 -26.5t177 -75t85 -114t23 -142.5v-364q0 -110 25.5 -181.5t90.5 -106t181 -34.5v-237zM98 706v288h277v-288h-277z" />
    <glyph glyph-name="uni007C" unicode="|" horiz-adv-x="964" 
d="M616 2708v-3368h-268v3368h268z" />
    <glyph glyph-name="uni007D" unicode="}" horiz-adv-x="1064" 
d="M966 855v-149q-169 0 -236 -70t-67 -230v-288q0 -153 -34.5 -257.5t-105.5 -167.5t-180 -91t-257 -28v237q116 0 181 34.5t90.5 106t25.5 181.5v364q0 77 23 142.5t85 114t177 75t298 26.5zM86 2125q148 0 257 -28t180 -91t105.5 -167.5t34.5 -257.5v-287
q0 -161 67 -230.5t236 -69.5v-150q-183 0 -298 27t-177 75t-85 113.5t-23 142.5v364q0 111 -25.5 182.5t-90.5 105.5t-181 34v237zM966 994v-288h-277v288h277z" />
    <glyph glyph-name="uni007E" unicode="~" horiz-adv-x="1875" 
d="M226 590q-4 173 51.5 284t149.5 164.5t207 53.5q100 0 185 -42.5t194 -138.5q68 -59 111 -85.5t96 -26.5q81 0 129.5 60.5t46.5 179.5h253q4 -174 -51.5 -285t-150 -164t-206.5 -53q-101 0 -186 43.5t-193 137.5q-70 61 -112 86.5t-95 25.5q-77 0 -127.5 -55.5
t-48.5 -184.5h-253z" />
    <glyph glyph-name="uni00A0" unicode="&#xa0;" horiz-adv-x="746" 
 />
    <glyph glyph-name="uni00A1" unicode="&#xa1;" horiz-adv-x="827" 
d="M578 -519h-329l26 1459h277zM414 1548q81 0 140 -58.5t60 -141.5q-1 -82 -60 -140.5t-140 -58.5q-83 0 -142 58.5t-58 140.5q-1 56 26.5 101t73 72t100.5 27z" />
    <glyph glyph-name="uni00A2" unicode="&#xa2;" horiz-adv-x="1599" 
d="M756 0v2048h164v-2048h-164zM848 230q-223 0 -383.5 101.5t-246.5 280.5t-86 410q0 235 88 414t248 280.5t377 101.5q175 0 312 -64.5t221.5 -180.5t100.5 -271h-291q-24 108 -109.5 186t-228.5 78q-125 0 -218.5 -65.5t-145.5 -186t-52 -284.5q0 -168 51 -290.5
t144.5 -189t220.5 -66.5q85 0 154.5 31.5t117 90.5t66.5 142h291q-16 -149 -97 -266t-216.5 -184.5t-317.5 -67.5z" />
    <glyph glyph-name="uni00A3" unicode="&#xa3;" horiz-adv-x="1814" 
d="M1589 0h-1400v266h1400v-266zM1169 802h-987v266h987v-266zM684 1442l32 -863q6 -129 -33 -230.5t-141 -161.5l-256 79q54 3 83 55t39 122.5t8 127.5l-29 871q-8 210 78.5 351t230.5 212t310 71q148 0 266.5 -49t200 -133.5t116.5 -192.5t14 -227l-289 46q10 98 -31 163
t-113 98t-153 33q-85 0 -161.5 -40t-124 -122t-47.5 -210z" />
    <glyph glyph-name="uni00A4" unicode="&#xa4;" horiz-adv-x="2075" 
d="M1034 -28q-171 0 -320.5 65.5t-263.5 183.5t-177.5 275t-63.5 340t63.5 339.5t177.5 273.5t263.5 182t320.5 65t320.5 -65t263 -182t178.5 -273.5t65 -339.5t-65 -340t-178.5 -275t-263 -183.5t-320.5 -65.5zM1034 206q122 0 229 49t187.5 135.5t126.5 201t46 244.5
q0 176 -79.5 318.5t-213 227t-296.5 84.5q-165 0 -299.5 -84.5t-214 -227t-79.5 -318.5q0 -174 79.5 -317t214 -228t299.5 -85zM1623 1267l-170 178l278 284l175 -178zM1731 -25l-278 284l170 174l283 -280zM342 -25l-170 178l278 280l175 -174zM450 1267l-278 284l170 178
l283 -284z" />
    <glyph glyph-name="uni00A5" unicode="&#xa5;" horiz-adv-x="1566" 
d="M372 2048l490 -1104l-225 -127l-597 1231h332zM706 947l488 1101h332l-597 -1231zM935 1077v-1077h-308v1077h308zM1369 1032v-202h-1186v202h1186zM1369 636v-202h-1186v202h1186z" />
    <glyph glyph-name="uni00A6" unicode="&#xa6;" horiz-adv-x="822" 
d="M274 558h274v-942h-274v942zM548 2048v-938h-274v938h274z" />
    <glyph glyph-name="uni00A7" unicode="&#xa7;" horiz-adv-x="1591" 
d="M1316 1556h-277q0 112 -61 186t-190 74q-78 0 -131 -27t-80.5 -71t-27.5 -93q0 -56 33 -104t81 -85.5t93 -61.5l386 -211q40 -20 92 -56t100.5 -90t80 -128.5t27.5 -172.5q-2 -77 -42.5 -145.5t-101 -117.5t-126.5 -70l-2 -4q76 -66 113.5 -152t37.5 -188
q0 -151 -74 -252t-196 -151.5t-266 -50.5q-167 0 -296 64t-202 182.5t-73 280.5h280q0 -130 81.5 -199t210.5 -67q100 0 178 47.5t78 145.5q0 68 -33 114.5t-80.5 79t-91.5 57.5l-387 207q-39 21 -91.5 57t-101 90.5t-79.5 129.5t-28 174q2 76 40 145t98.5 119.5t132.5 71.5
v6q-68 67 -109 149.5t-41 185.5q0 130 66.5 232t183 160.5t267.5 58.5q161 0 279.5 -67t183.5 -184t65 -269zM1179 709q2 50 -22 93t-65 78.5t-92 61.5l-373 203q-41 23 -91 3t-86 -71.5t-38 -121.5q-3 -81 50.5 -138t131.5 -99l360 -193q38 -21 90.5 -2t93 68t41.5 118z
" />
    <glyph glyph-name="uni00A8" unicode="&#xa8;" horiz-adv-x="1611" 
d="M512 1777q-71 0 -124 52.5t-53 121.5q0 75 53 125t124 50q75 0 125.5 -50t50.5 -125q0 -69 -50.5 -121.5t-125.5 -52.5zM1100 1777q-71 0 -124 52.5t-53 121.5q0 75 53 125t124 50q75 0 125.5 -50t50.5 -125q0 -69 -50.5 -121.5t-125.5 -52.5z" />
    <glyph glyph-name="uni00A9" unicode="&#xa9;" horiz-adv-x="2576" 
d="M713 1024q0 161 79 294t211.5 211.5t293.5 78.5q140 0 259 -60.5t197 -165.5t95 -236h-260q-18 93 -101.5 152.5t-189.5 59.5q-92 0 -168 -45t-121 -120.5t-45 -168.5q0 -92 45 -168t121 -121t168 -45q106 0 181 59.5t94 152.5h260q-17 -131 -91 -236t-189 -165.5
t-255 -60.5q-161 0 -293.5 78.5t-211.5 211.5t-79 294zM1288 -32q-218 0 -409.5 82t-337 227.5t-228 336.5t-81.5 410t83.5 410t227.5 336.5t336 227.5t409 82q219 0 410.5 -82t336 -227.5t226.5 -336.5t83 -410t-81 -410t-227 -336.5t-337 -227.5t-411 -82zM1288 234
q164 0 308 61t252.5 169.5t169.5 252t60 306.5q0 164 -61.5 308t-170 252.5t-251.5 169.5t-307 61q-163 0 -306 -61t-251.5 -170t-170.5 -252.5t-62 -307.5q-1 -162 60.5 -305.5t170 -252t252 -170t307.5 -61.5z" />
    <glyph glyph-name="uni00AA" unicode="&#xaa;" horiz-adv-x="1300" 
d="M819 1184v468q0 86 -39.5 131t-121.5 45q-91 0 -142 -35t-51 -101l-239 19q0 139 117.5 230t314.5 91q181 0 292.5 -95.5t111.5 -284.5v-432q0 -64 7 -125.5t29 -123.5h-246q-15 48 -24 103t-9 110zM880 1583v-160h-202q-120 0 -175 -46t-55 -106q0 -56 38.5 -88
t123.5 -32q56 0 114 25.5t97 61.5t39 70l24 -161q-31 -66 -112 -130.5t-223 -64.5q-166 0 -256.5 85.5t-90.5 226.5q0 153 118.5 236t357.5 83h202z" />
    <glyph glyph-name="uni00AB" unicode="&#xab;" horiz-adv-x="1601" 
d="M851 220h-267l-404 600v20h287zM851 1448l-384 -620h-287v20l404 600h267zM1412 220h-267l-404 600v20h287zM1412 1448l-384 -620h-287v20l404 600h267z" />
    <glyph glyph-name="uni00AC" unicode="&#xac;" horiz-adv-x="1558" 
d="M1361 1108v-236h-1159v236h1159zM1361 1000v-484h-279v484h279z" />
    <glyph glyph-name="uni00AD" unicode="&#xad;" horiz-adv-x="1304" 
d="M1106 995v-259h-908v259h908z" />
    <glyph glyph-name="uni00AE" unicode="&#xae;" horiz-adv-x="1882" 
d="M658 916v738h369q54 0 108.5 -26.5t91 -80t36.5 -132.5q0 -80 -38 -136t-95 -85t-114 -29h-262v127h216q36 0 71.5 31t35.5 92q0 64 -35.5 88t-68.5 24h-143v-611h-172zM1112 1262l179 -346h-189l-172 346h182zM941 476q-166 0 -311 62t-255 172t-172 255t-62 311t62 311
t172 255t255 172t311 62t311 -62t255 -172t172 -255t62 -311t-62 -311t-172 -255t-255 -172t-311 -62zM941 674q166 0 302.5 81.5t217.5 218t81 302.5t-81 302.5t-217.5 218t-302.5 81.5t-303 -81.5t-218 -218t-81 -302.5t81 -302.5t218 -218t303 -81.5z" />
    <glyph glyph-name="uni00AF" unicode="&#xaf;" horiz-adv-x="1373" 
d="M1161 2048v-210h-949v210h949z" />
    <glyph glyph-name="uni00B0" unicode="&#xb0;" horiz-adv-x="1285" 
d="M642 1122q-130 0 -236.5 63.5t-170 170.5t-63.5 237t63.5 236.5t170 170t236.5 63.5t237 -63.5t170.5 -170t63.5 -236.5t-63.5 -237t-170.5 -170.5t-237 -63.5zM642 1350q68 0 123 33t87.5 88t32.5 122t-32.5 122t-87.5 87.5t-123 32.5q-67 0 -122 -32.5t-87.5 -87.5
t-32.5 -122t32.5 -122t87.5 -88t122 -33z" />
    <glyph glyph-name="uni00B1" unicode="&#xb1;" horiz-adv-x="1875" 
d="M274 90v262h1328v-262h-1328zM274 906v259h1328v-259h-1328zM803 518v1034h269v-1034h-269z" />
    <glyph glyph-name="uni00B2" unicode="&#xb2;" horiz-adv-x="1187" 
d="M134 1024v178l475 407q65 56 110 101t68.5 88.5t23.5 93.5q0 84 -65.5 132.5t-161.5 48.5q-102 0 -164 -53t-62 -142h-237q0 178 131 284t336 106q138 0 241 -49t160.5 -133t57.5 -190q0 -84 -34 -156t-106 -146t-185 -164l-232 -196v-9h586v-201h-942z" />
    <glyph glyph-name="uni00B3" unicode="&#xb3;" horiz-adv-x="1223" 
d="M609 1008q-143 0 -254.5 46.5t-176.5 128t-68 189.5h252q3 -73 73.5 -116t173.5 -43q108 0 179 47.5t71 125.5q0 76 -74.5 125t-202.5 49h-113v182h113q105 0 174 46t69 122q0 71 -58.5 117t-153.5 46q-97 0 -166 -45t-72 -119h-237q2 107 65.5 187.5t170.5 126t240 45.5
q134 0 235.5 -45t159 -123t57.5 -176q0 -108 -74.5 -175.5t-181.5 -84.5v-9q147 -18 226 -96t79 -191q0 -104 -65 -185.5t-179.5 -128t-261.5 -46.5z" />
    <glyph glyph-name="uni00B4" unicode="&#xb4;" horiz-adv-x="1400" 
d="M551 1741l234 461h315l-310 -461h-239z" />
    <glyph glyph-name="uni00B5" unicode="&#xb5;" horiz-adv-x="1794" 
d="M201 -570v2106h299v-899q0 -114 49.5 -201t139 -135.5t208.5 -48.5t208.5 49t139 135.5t49.5 200.5v899h299v-1536h-294v225h-12q-56 -114 -161 -174.5t-229 -60.5t-228.5 60.5t-162.5 174.5h-12v-795h-293z" />
    <glyph glyph-name="uni00B6" unicode="&#xb6;" horiz-adv-x="1698" 
d="M1410 1792h-464v-1032h-116q-221 0 -373.5 83.5t-231 229t-78.5 331.5q0 184 78.5 329.5t231 230t373.5 84.5h580v-256zM1194 0v2048h279v-2048h-279z" />
    <glyph glyph-name="uni00B7" unicode="&#xb7;" horiz-adv-x="797" 
d="M398 697q-82 0 -141 58.5t-59 141.5q0 82 59 140.5t141 58.5t141 -58.5t59 -140.5q0 -55 -27.5 -100.5t-72.5 -72.5t-100 -27z" />
    <glyph glyph-name="uni00B8" unicode="&#xb8;" horiz-adv-x="853" 
d="M330 8h196l-16 -82q87 -14 152 -70t65 -169q1 -135 -116.5 -219t-339.5 -84l-6 167q104 0 168.5 30t65.5 97t-49.5 94t-160.5 38z" />
    <glyph glyph-name="uni00B9" unicode="&#xb9;" horiz-adv-x="889" 
d="M427 1024v990h-9l-309 -202v229l323 211h231v-1228h-236z" />
    <glyph glyph-name="uni00BA" unicode="&#xba;" horiz-adv-x="1298" 
d="M168 1436v107q0 143 58.5 253t167 173t255.5 63q224 0 352.5 -137.5t128.5 -351.5v-107q0 -142 -58 -251t-165 -171.5t-254 -62.5q-225 0 -355 136t-130 349zM410 1543v-107q0 -123 61 -203.5t182 -80.5q118 0 176 80.5t58 203.5v107q0 120 -58.5 202.5t-179.5 82.5
q-118 0 -178.5 -82.5t-60.5 -202.5z" />
    <glyph glyph-name="uni00BB" unicode="&#xbb;" horiz-adv-x="1604" 
d="M173 220l384 620h287v-20l-404 -600h-267zM173 1448h267l404 -600v-20h-287zM737 220l384 620h287v-20l-404 -600h-267zM737 1448h267l404 -600v-20h-287z" />
    <glyph glyph-name="uni00BC" unicode="&#xbc;" horiz-adv-x="2484" 
d="M369 0l1408 2048h239l-1408 -2048h-239zM367 960v855h-9l-266 -174v225l280 182h226v-1088h-231zM1442 189v183l519 716h159v-251h-95l-344 -455v-6h725v-187h-964zM2030 0v246l4 81v761h217v-1088h-221z" />
    <glyph glyph-name="uni00BD" unicode="&#xbd;" horiz-adv-x="2598" 
d="M369 0l1408 2048h239l-1408 -2048h-239zM367 960v855h-9l-266 -174v225l280 182h226v-1088h-231zM1641 0v168l432 354q88 73 132.5 126t44.5 114q0 74 -58 116.5t-144 42.5q-87 0 -144 -45.5t-57 -123.5h-222q0 159 119 255.5t309 96.5t304 -97.5t114 -240.5
q0 -74 -30 -137.5t-95 -129.5t-170 -146l-199 -156v-9h524v-188h-860z" />
    <glyph glyph-name="uni00BE" unicode="&#xbe;" horiz-adv-x="2687" 
d="M572 0l1408 2048h239l-1408 -2048h-239zM1645 189v183l519 716h159v-251h-95l-344 -455v-6h725v-187h-964zM2233 0v246l4 81v761h217v-1088h-221zM552 944q-133 0 -235.5 43t-160.5 118t-59 171h236q1 -62 63 -101.5t154 -39.5q94 0 156 42.5t62 105.5q0 66 -66 106.5
t-176 40.5h-102v168h102q93 0 154.5 39.5t61.5 102.5q0 61 -52.5 101.5t-138.5 40.5q-84 0 -143.5 -40t-61.5 -102h-225q2 94 59 167t154 115t220 42q122 0 216 -40.5t146.5 -110t52.5 -156.5q0 -92 -65 -153.5t-170 -75.5v-9q134 -16 205.5 -84.5t71.5 -168.5
q0 -93 -59 -166t-162.5 -114.5t-237.5 -41.5z" />
    <glyph glyph-name="uni00BF" unicode="&#xbf;" horiz-adv-x="1480" 
d="M952 938v-20q-1 -184 -37 -294.5t-102 -178t-159 -125.5q-59 -36 -107.5 -84t-76.5 -108.5t-28 -135.5q0 -88 42 -153.5t111.5 -101t154.5 -35.5q77 0 147 32.5t116.5 99.5t52.5 173h304q-6 -180 -90.5 -304t-223 -188.5t-306.5 -64.5q-184 0 -322 68.5t-214.5 191.5
t-76.5 285q0 113 35 202.5t100 159.5t154 124q85 52 137.5 109.5t76.5 135t26 192.5v20h286zM801 1546q82 0 141 -59t59 -141t-59 -141t-141 -59q-81 0 -140.5 59t-59.5 141q0 55 27.5 100t73 72.5t99.5 27.5z" />
    <glyph glyph-name="uni00C0" unicode="&#xc0;" horiz-adv-x="1971" 
d="M398 0h-328l737 2048h357l737 -2048h-328l-579 1676h-16zM453 802h1064v-260h-1064v260zM869 2253l-309 461h315l233 -461h-239z" />
    <glyph glyph-name="uni00C1" unicode="&#xc1;" horiz-adv-x="1971" 
d="M398 0h-328l737 2048h357l737 -2048h-328l-579 1676h-16zM453 802h1064v-260h-1064v260zM862 2253l234 461h315l-310 -461h-239z" />
    <glyph glyph-name="uni00C2" unicode="&#xc2;" horiz-adv-x="1971" 
d="M398 0h-328l737 2048h357l737 -2048h-328l-579 1676h-16zM453 802h1064v-260h-1064v260zM1191 2232l-205 268l-206 -268h-270v15l351 424h249l352 -424v-15h-271z" />
    <glyph glyph-name="uni00C3" unicode="&#xc3;" horiz-adv-x="1971" 
d="M398 0h-328l737 2048h357l737 -2048h-328l-579 1676h-16zM453 802h1064v-260h-1064v260zM685 2251l-202 7q0 165 90 264t221 100q62 0 108 -20.5t86 -47.5t81 -47.5t91 -20.5q57 1 93.5 44.5t36.5 108.5l198 -13q-1 -167 -90.5 -262.5t-220.5 -95.5q-71 0 -118 20.5
t-83 47t-74 47t-91 20.5q-55 0 -90.5 -43t-35.5 -109z" />
    <glyph glyph-name="uni00C4" unicode="&#xc4;" horiz-adv-x="1971" 
d="M398 0h-328l737 2048h357l737 -2048h-328l-579 1676h-16zM453 802h1064v-260h-1064v260zM692 2289q-71 0 -124 52.5t-53 121.5q0 75 53 125t124 50q75 0 125.5 -50t50.5 -125q0 -69 -50.5 -121.5t-125.5 -52.5zM1280 2289q-71 0 -124 52.5t-53 121.5q0 75 53 125t124 50
q75 0 125.5 -50t50.5 -125q0 -69 -50.5 -121.5t-125.5 -52.5z" />
    <glyph glyph-name="uni00C5" unicode="&#xc5;" horiz-adv-x="1971" 
d="M398 0h-328l737 2048h357l737 -2048h-328l-579 1676h-16zM453 802h1064v-260h-1064v260zM986 2181q-123 0 -209.5 86t-86.5 207q0 81 39.5 148t107 106.5t149.5 39.5q81 0 148.5 -39.5t107.5 -106.5t40 -148t-40 -147.5t-107.5 -106t-148.5 -39.5zM986 2334q60 0 100 41
t40 99q0 59 -40 100t-100 41t-100.5 -41t-40.5 -100q0 -58 40 -99.5t101 -40.5z" />
    <glyph glyph-name="uni00C6" unicode="&#xc6;" horiz-adv-x="2826" 
d="M70 0l954 2048h1613v-266h-975v-624h908v-265h-908v-627h987v-266h-1296v1759h-147l-796 -1759h-340zM518 542v260h1000v-260h-1000z" />
    <glyph glyph-name="uni00C7" unicode="&#xc7;" horiz-adv-x="2071" 
d="M1926 1382h-312q-18 100 -67 176t-120 129t-158.5 80t-185.5 27q-177 0 -316.5 -89t-220 -261t-80.5 -420q0 -250 80.5 -422t220.5 -260t315 -88q97 0 184.5 26.5t158.5 78.5t120.5 127.5t68.5 173.5l312 -1q-25 -151 -96.5 -277.5t-183 -218t-254.5 -141.5t-312 -50
q-266 0 -474 126.5t-327.5 362.5t-119.5 563q0 328 120 563.5t328 362t473 126.5q163 0 304.5 -46.5t254.5 -136t187 -218t100 -293.5zM975 -3h196l-16 -82q87 -14 152 -70t65 -169q1 -135 -116.5 -219t-339.5 -84l-6 167q104 0 168.5 30t65.5 97t-49.5 94t-160.5 38z" />
    <glyph glyph-name="uni00C8" unicode="&#xc8;" horiz-adv-x="1698" 
d="M225 0v2048h1284v-266h-975v-624h908v-265h-908v-627h987v-266h-1296zM750 2253l-309 461h315l233 -461h-239z" />
    <glyph glyph-name="uni00C9" unicode="&#xc9;" horiz-adv-x="1698" 
d="M225 0v2048h1284v-266h-975v-624h908v-265h-908v-627h987v-266h-1296zM743 2253l234 461h315l-310 -461h-239z" />
    <glyph glyph-name="uni00CA" unicode="&#xca;" horiz-adv-x="1698" 
d="M225 0v2048h1284v-266h-975v-624h908v-265h-908v-627h987v-266h-1296zM1072 2232l-205 268l-206 -268h-270v15l351 424h249l352 -424v-15h-271z" />
    <glyph glyph-name="uni00CB" unicode="&#xcb;" horiz-adv-x="1698" 
d="M225 0v2048h1284v-266h-975v-624h908v-265h-908v-627h987v-266h-1296zM573 2289q-71 0 -124 52.5t-53 121.5q0 75 53 125t124 50q75 0 125.5 -50t50.5 -125q0 -69 -50.5 -121.5t-125.5 -52.5zM1161 2289q-71 0 -124 52.5t-53 121.5q0 75 53 125t124 50q75 0 125.5 -50
t50.5 -125q0 -69 -50.5 -121.5t-125.5 -52.5z" />
    <glyph glyph-name="uni00CC" unicode="&#xcc;" horiz-adv-x="759" 
d="M534 2048v-2048h-309v2048h309zM264 2253l-309 461h315l233 -461h-239z" />
    <glyph glyph-name="uni00CD" unicode="&#xcd;" horiz-adv-x="759" 
d="M534 2048v-2048h-309v2048h309zM257 2253l234 461h315l-310 -461h-239z" />
    <glyph glyph-name="uni00CE" unicode="&#xce;" horiz-adv-x="759" 
d="M534 2048v-2048h-309v2048h309zM585 2232l-205 268l-206 -268h-270v15l351 424h249l352 -424v-15h-271z" />
    <glyph glyph-name="uni00CF" unicode="&#xcf;" horiz-adv-x="759" 
d="M534 2048v-2048h-309v2048h309zM86 2289q-70 0 -123 52.5t-53 121.5q0 75 53 125t123 50q75 0 125.5 -50t50.5 -125q0 -69 -50.5 -121.5t-125.5 -52.5zM674 2289q-70 0 -123 52.5t-53 121.5q0 75 53 125t123 50q75 0 125.5 -50t50.5 -125q0 -69 -50.5 -121.5
t-125.5 -52.5z" />
    <glyph glyph-name="uni00D0" unicode="&#xd0;" horiz-adv-x="2032" 
d="M888 0h-506v270h489q234 0 389 88.5t232 257t77 411.5q0 241 -76.5 409t-227.5 255t-375 87h-519v270h538q301 0 517 -122.5t331.5 -351t115.5 -547.5q0 -320 -116.5 -550t-336.5 -353.5t-532 -123.5zM534 2048v-2048h-309v2048h309zM-81 961v206h919v-206h-919z" />
    <glyph glyph-name="uni00D1" unicode="&#xd1;" horiz-adv-x="2103" 
d="M1878 2048v-2048h-284l-1041 1502h-19v-1502h-309v2048h286l1042 -1504h19v1504h306zM751 2234l-201 6q0 166 89.5 265t221.5 99q61 0 107 -20.5t86.5 -47t81 -47t90.5 -20.5q58 0 94.5 44t36.5 109l197 -13q0 -167 -90 -262.5t-221 -96.5q-71 0 -117.5 20.5t-82.5 47
t-74 47.5t-91 21q-56 0 -91.5 -43.5t-35.5 -108.5z" />
    <glyph glyph-name="uni00D2" unicode="&#xd2;" horiz-adv-x="2163" 
d="M2004 1024q0 -328 -120 -563.5t-328.5 -362t-473.5 -126.5q-266 0 -474.5 126.5t-328.5 362.5t-120 563q0 328 120 563.5t328.5 362t474.5 126.5q265 0 473.5 -126.5t328.5 -362t120 -563.5zM1698 1024q0 250 -80.5 421.5t-220 260t-315.5 88.5q-177 0 -316 -88.5
t-219.5 -260t-80.5 -421.5t80.5 -421.5t219.5 -260t316 -88.5q176 0 315.5 88.5t220 260t80.5 421.5zM965 2253l-309 461h315l233 -461h-239z" />
    <glyph glyph-name="uni00D3" unicode="&#xd3;" horiz-adv-x="2163" 
d="M2004 1024q0 -328 -120 -563.5t-328.5 -362t-473.5 -126.5q-266 0 -474.5 126.5t-328.5 362.5t-120 563q0 328 120 563.5t328.5 362t474.5 126.5q265 0 473.5 -126.5t328.5 -362t120 -563.5zM1698 1024q0 250 -80.5 421.5t-220 260t-315.5 88.5q-177 0 -316 -88.5
t-219.5 -260t-80.5 -421.5t80.5 -421.5t219.5 -260t316 -88.5q176 0 315.5 88.5t220 260t80.5 421.5zM958 2253l234 461h315l-310 -461h-239z" />
    <glyph glyph-name="uni00D4" unicode="&#xd4;" horiz-adv-x="2163" 
d="M2004 1024q0 -328 -120 -563.5t-328.5 -362t-473.5 -126.5q-266 0 -474.5 126.5t-328.5 362.5t-120 563q0 328 120 563.5t328.5 362t474.5 126.5q265 0 473.5 -126.5t328.5 -362t120 -563.5zM1698 1024q0 250 -80.5 421.5t-220 260t-315.5 88.5q-177 0 -316 -88.5
t-219.5 -260t-80.5 -421.5t80.5 -421.5t219.5 -260t316 -88.5q176 0 315.5 88.5t220 260t80.5 421.5zM1287 2232l-205 268l-206 -268h-270v15l351 424h249l352 -424v-15h-271z" />
    <glyph glyph-name="uni00D5" unicode="&#xd5;" horiz-adv-x="2163" 
d="M2004 1024q0 -328 -120 -563.5t-328.5 -362t-473.5 -126.5q-266 0 -474.5 126.5t-328.5 362.5t-120 563q0 328 120 563.5t328.5 362t474.5 126.5q265 0 473.5 -126.5t328.5 -362t120 -563.5zM1698 1024q0 250 -80.5 421.5t-220 260t-315.5 88.5q-177 0 -316 -88.5
t-219.5 -260t-80.5 -421.5t80.5 -421.5t219.5 -260t316 -88.5q176 0 315.5 88.5t220 260t80.5 421.5zM781 2251l-202 7q0 165 90 264t221 100q62 0 108 -20.5t86 -47.5t81 -47.5t91 -20.5q57 1 93.5 44.5t36.5 108.5l198 -13q-1 -167 -90.5 -262.5t-220.5 -95.5
q-71 0 -118 20.5t-83 47t-74 47t-91 20.5q-55 0 -90.5 -43t-35.5 -109z" />
    <glyph glyph-name="uni00D6" unicode="&#xd6;" horiz-adv-x="2163" 
d="M2004 1024q0 -328 -120 -563.5t-328.5 -362t-473.5 -126.5q-266 0 -474.5 126.5t-328.5 362.5t-120 563q0 328 120 563.5t328.5 362t474.5 126.5q265 0 473.5 -126.5t328.5 -362t120 -563.5zM1698 1024q0 250 -80.5 421.5t-220 260t-315.5 88.5q-177 0 -316 -88.5
t-219.5 -260t-80.5 -421.5t80.5 -421.5t219.5 -260t316 -88.5q176 0 315.5 88.5t220 260t80.5 421.5zM788 2289q-71 0 -124 52.5t-53 121.5q0 75 53 125t124 50q75 0 125.5 -50t50.5 -125q0 -69 -50.5 -121.5t-125.5 -52.5zM1376 2289q-71 0 -124 52.5t-53 121.5
q0 75 53 125t124 50q75 0 125.5 -50t50.5 -125q0 -69 -50.5 -121.5t-125.5 -52.5z" />
    <glyph glyph-name="uni00D7" unicode="&#xd7;" horiz-adv-x="1875" 
d="M1418 137l-1150 1149l189 190l1150 -1150zM457 137l-189 189l1150 1150l189 -190z" />
    <glyph glyph-name="uni00D8" unicode="&#xd8;" horiz-adv-x="2163" 
d="M442 -89l-166 114l1438 2108l167 -114zM2004 1024q0 -328 -120 -563.5t-328.5 -362t-473.5 -126.5q-266 0 -474.5 126.5t-328.5 362.5t-120 563q0 328 120 563.5t328.5 362t474.5 126.5q265 0 473.5 -126.5t328.5 -362t120 -563.5zM1698 1024q0 250 -80.5 421.5t-220 260
t-315.5 88.5q-177 0 -316 -88.5t-219.5 -260t-80.5 -421.5t80.5 -421.5t219.5 -260t316 -88.5q176 0 315.5 88.5t220 260t80.5 421.5z" />
    <glyph glyph-name="uni00D9" unicode="&#xd9;" horiz-adv-x="2077" 
d="M1542 2048h310v-1347q0 -215 -101 -380.5t-284 -260t-429 -94.5q-245 0 -428 94.5t-284 260t-101 380.5v1347h309v-1322q0 -139 61.5 -247t174.5 -169.5t268 -61.5q156 0 269.5 61.5t174 169.5t60.5 247v1322zM922 2253l-309 461h315l233 -461h-239z" />
    <glyph glyph-name="uni00DA" unicode="&#xda;" horiz-adv-x="2077" 
d="M1542 2048h310v-1347q0 -215 -101 -380.5t-284 -260t-429 -94.5q-245 0 -428 94.5t-284 260t-101 380.5v1347h309v-1322q0 -139 61.5 -247t174.5 -169.5t268 -61.5q156 0 269.5 61.5t174 169.5t60.5 247v1322zM915 2253l234 461h315l-310 -461h-239z" />
    <glyph glyph-name="uni00DB" unicode="&#xdb;" horiz-adv-x="2077" 
d="M1542 2048h310v-1347q0 -215 -101 -380.5t-284 -260t-429 -94.5q-245 0 -428 94.5t-284 260t-101 380.5v1347h309v-1322q0 -139 61.5 -247t174.5 -169.5t268 -61.5q156 0 269.5 61.5t174 169.5t60.5 247v1322zM1244 2232l-205 268l-206 -268h-270v15l351 424h249
l352 -424v-15h-271z" />
    <glyph glyph-name="uni00DC" unicode="&#xdc;" horiz-adv-x="2077" 
d="M1542 2048h310v-1347q0 -215 -101 -380.5t-284 -260t-429 -94.5q-245 0 -428 94.5t-284 260t-101 380.5v1347h309v-1322q0 -139 61.5 -247t174.5 -169.5t268 -61.5q156 0 269.5 61.5t174 169.5t60.5 247v1322zM745 2289q-71 0 -124 52.5t-53 121.5q0 75 53 125t124 50
q75 0 125.5 -50t50.5 -125q0 -69 -50.5 -121.5t-125.5 -52.5zM1333 2289q-71 0 -124 52.5t-53 121.5q0 75 53 125t124 50q75 0 125.5 -50t50.5 -125q0 -69 -50.5 -121.5t-125.5 -52.5z" />
    <glyph glyph-name="uni00DD" unicode="&#xdd;" horiz-adv-x="1928" 
d="M67 2048h351l535 -931h22l535 931h351l-743 -1244v-804h-308v804zM841 2253l234 461h315l-310 -461h-239z" />
    <glyph glyph-name="uni00DE" unicode="&#xde;" horiz-adv-x="1814" 
d="M213 2048h309v-2048h-309v2048zM357 1640h529q228 0 385.5 -80t239 -216.5t81.5 -304.5t-81.5 -304t-239 -216t-385.5 -80h-529v258h529q136 0 227 41t137.5 117.5t46.5 179.5q0 104 -46.5 182t-137.5 121.5t-227 43.5h-529v258z" />
    <glyph glyph-name="uni00DF" unicode="&#xdf;" horiz-adv-x="1767" 
d="M225 0v1518q0 173 79.5 298.5t221 192.5t328.5 67q180 0 325.5 -63.5t230.5 -183.5t85 -290q0 -169 -86 -286.5t-228 -163.5v-21q196 -17 318.5 -153t122.5 -351q-1 -168 -78 -295t-215.5 -198t-323.5 -71h-239v262h219q103 0 178 40t116.5 111.5t41.5 164.5
q0 145 -101 238t-274 93h-172v260h120q92 0 159 46t103.5 120.5t36.5 158.5q0 134 -88.5 225t-242.5 91q-147 0 -242.5 -86.5t-95.5 -225.5v-1498h-299z" />
    <glyph glyph-name="uni00E0" unicode="&#xe0;" horiz-adv-x="1603" 
d="M648 -34q-146 0 -264 54.5t-186.5 158.5t-68.5 255q0 130 50 214t135 133t190 74t214 38q138 16 224 26.5t125 34.5t39 78v7q0 131 -73.5 203t-218.5 72q-151 0 -237.5 -66.5t-119.5 -147.5l-281 64q50 140 146.5 226.5t222.5 126t265 39.5q92 0 195.5 -21.5t194 -78.5
t148.5 -162.5t58 -273.5v-1020h-292v210h-12q-29 -58 -87 -114t-149 -93t-218 -37zM713 206q124 0 212.5 49t135 128.5t46.5 170.5v198q-16 -16 -61.5 -29.5t-103.5 -23t-113 -17t-92 -12.5q-87 -11 -158.5 -37t-114 -74.5t-42.5 -128.5q0 -111 82 -167.5t209 -56.5z
M709 1741l-309 461h315l233 -461h-239z" />
    <glyph glyph-name="uni00E1" unicode="&#xe1;" horiz-adv-x="1603" 
d="M648 -34q-146 0 -264 54.5t-186.5 158.5t-68.5 255q0 130 50 214t135 133t190 74t214 38q138 16 224 26.5t125 34.5t39 78v7q0 131 -73.5 203t-218.5 72q-151 0 -237.5 -66.5t-119.5 -147.5l-281 64q50 140 146.5 226.5t222.5 126t265 39.5q92 0 195.5 -21.5t194 -78.5
t148.5 -162.5t58 -273.5v-1020h-292v210h-12q-29 -58 -87 -114t-149 -93t-218 -37zM713 206q124 0 212.5 49t135 128.5t46.5 170.5v198q-16 -16 -61.5 -29.5t-103.5 -23t-113 -17t-92 -12.5q-87 -11 -158.5 -37t-114 -74.5t-42.5 -128.5q0 -111 82 -167.5t209 -56.5z
M702 1741l234 461h315l-310 -461h-239z" />
    <glyph glyph-name="uni00E2" unicode="&#xe2;" horiz-adv-x="1603" 
d="M648 -34q-146 0 -264 54.5t-186.5 158.5t-68.5 255q0 130 50 214t135 133t190 74t214 38q138 16 224 26.5t125 34.5t39 78v7q0 131 -73.5 203t-218.5 72q-151 0 -237.5 -66.5t-119.5 -147.5l-281 64q50 140 146.5 226.5t222.5 126t265 39.5q92 0 195.5 -21.5t194 -78.5
t148.5 -162.5t58 -273.5v-1020h-292v210h-12q-29 -58 -87 -114t-149 -93t-218 -37zM713 206q124 0 212.5 49t135 128.5t46.5 170.5v198q-16 -16 -61.5 -29.5t-103.5 -23t-113 -17t-92 -12.5q-87 -11 -158.5 -37t-114 -74.5t-42.5 -128.5q0 -111 82 -167.5t209 -56.5z
M1031 1720l-205 268l-206 -268h-270v15l351 424h249l352 -424v-15h-271z" />
    <glyph glyph-name="uni00E3" unicode="&#xe3;" horiz-adv-x="1603" 
d="M648 -34q-146 0 -264 54.5t-186.5 158.5t-68.5 255q0 130 50 214t135 133t190 74t214 38q138 16 224 26.5t125 34.5t39 78v7q0 131 -73.5 203t-218.5 72q-151 0 -237.5 -66.5t-119.5 -147.5l-281 64q50 140 146.5 226.5t222.5 126t265 39.5q92 0 195.5 -21.5t194 -78.5
t148.5 -162.5t58 -273.5v-1020h-292v210h-12q-29 -58 -87 -114t-149 -93t-218 -37zM713 206q124 0 212.5 49t135 128.5t46.5 170.5v198q-16 -16 -61.5 -29.5t-103.5 -23t-113 -17t-92 -12.5q-87 -11 -158.5 -37t-114 -74.5t-42.5 -128.5q0 -111 82 -167.5t209 -56.5z
M525 1722l-201 6q0 166 89.5 265t221.5 99q61 0 107 -20.5t86.5 -47t81 -47t90.5 -20.5q58 0 94.5 44t36.5 109l197 -13q0 -167 -90 -262.5t-221 -96.5q-71 0 -117.5 20.5t-82.5 47t-74 47.5t-91 21q-56 0 -91.5 -43.5t-35.5 -108.5z" />
    <glyph glyph-name="uni00E4" unicode="&#xe4;" horiz-adv-x="1603" 
d="M648 -34q-146 0 -264 54.5t-186.5 158.5t-68.5 255q0 130 50 214t135 133t190 74t214 38q138 16 224 26.5t125 34.5t39 78v7q0 131 -73.5 203t-218.5 72q-151 0 -237.5 -66.5t-119.5 -147.5l-281 64q50 140 146.5 226.5t222.5 126t265 39.5q92 0 195.5 -21.5t194 -78.5
t148.5 -162.5t58 -273.5v-1020h-292v210h-12q-29 -58 -87 -114t-149 -93t-218 -37zM713 206q124 0 212.5 49t135 128.5t46.5 170.5v198q-16 -16 -61.5 -29.5t-103.5 -23t-113 -17t-92 -12.5q-87 -11 -158.5 -37t-114 -74.5t-42.5 -128.5q0 -111 82 -167.5t209 -56.5z
M532 1777q-71 0 -124 52.5t-53 121.5q0 75 53 125t124 50q75 0 125.5 -50t50.5 -125q0 -69 -50.5 -121.5t-125.5 -52.5zM1120 1777q-71 0 -124 52.5t-53 121.5q0 75 53 125t124 50q75 0 125.5 -50t50.5 -125q0 -69 -50.5 -121.5t-125.5 -52.5z" />
    <glyph glyph-name="uni00E5" unicode="&#xe5;" horiz-adv-x="1603" 
d="M648 -34q-146 0 -264 54.5t-186.5 158.5t-68.5 255q0 130 50 214t135 133t190 74t214 38q138 16 224 26.5t125 34.5t39 78v7q0 131 -73.5 203t-218.5 72q-151 0 -237.5 -66.5t-119.5 -147.5l-281 64q50 140 146.5 226.5t222.5 126t265 39.5q92 0 195.5 -21.5t194 -78.5
t148.5 -162.5t58 -273.5v-1020h-292v210h-12q-29 -58 -87 -114t-149 -93t-218 -37zM713 206q124 0 212.5 49t135 128.5t46.5 170.5v198q-16 -16 -61.5 -29.5t-103.5 -23t-113 -17t-92 -12.5q-87 -11 -158.5 -37t-114 -74.5t-42.5 -128.5q0 -111 82 -167.5t209 -56.5z
M826 1706q-100 0 -181 44.5t-128.5 120.5t-47.5 171q0 94 47.5 172.5t128.5 125.5t181 47q99 0 179 -47t127 -125.5t47 -172.5q0 -95 -47 -171t-127 -120.5t-179 -44.5zM826 1866q78 1 129 54.5t51 121.5q0 70 -51 125.5t-129 55.5q-79 0 -129.5 -55.5t-50.5 -125.5
q0 -68 50.5 -122t129.5 -54z" />
    <glyph glyph-name="uni00E6" unicode="&#xe6;" horiz-adv-x="2594" 
d="M1811 -31q-241 0 -407 114.5t-212 306.5l25 810q81 172 223 264t341 92q131 0 252.5 -43t218.5 -135t153.5 -238.5t56.5 -355.5v-106h-1212v224h918q0 118 -48 209.5t-134.5 144.5t-202.5 53q-126 0 -219 -61.5t-144 -160.5t-51 -213v-175q0 -154 55 -262t153 -164.5
t228 -56.5q86 0 155.5 24.5t120.5 73.5t78 121l283 -51q-34 -125 -121 -218.5t-217.5 -145t-292.5 -51.5zM713 206q124 0 212.5 49t135 128.5t46.5 170.5v198q-16 -16 -61.5 -29.5t-103.5 -23t-113 -17t-92 -12.5q-87 -11 -158.5 -37t-114 -74.5t-42.5 -128.5
q0 -111 82 -167.5t209 -56.5zM656 -34q-150 0 -269.5 54.5t-188.5 158.5t-69 255q0 130 50.5 214t135 133.5t190 74.5t213.5 37q138 16 224 27t125 34.5t39 77.5v7q0 130 -73.5 202.5t-218.5 72.5q-150 0 -237 -66t-120 -148l-281 64q50 140 146 226.5t223 126t267 39.5
q65 0 140.5 -12t149 -44.5t133.5 -93.5t92 -160l-78 -976h-23q-33 -86 -117.5 -155t-202 -109t-250.5 -40z" />
    <glyph glyph-name="uni00E7" unicode="&#xe7;" horiz-adv-x="1599" 
d="M848 -31q-223 0 -383.5 101.5t-246.5 280.5t-86 410q0 234 88 413.5t248 280.5t377 101q175 0 312 -64.5t221.5 -180.5t100.5 -271h-291q-24 108 -109.5 186t-228.5 78q-125 0 -218.5 -65.5t-145.5 -186t-52 -284.5q0 -168 51 -290t144.5 -189t220.5 -67q85 0 154.5 31.5
t117 90.5t66.5 142h291q-16 -149 -97 -266t-216.5 -184t-317.5 -67zM740 8h196l-16 -82q87 -14 152 -70t65 -169q1 -135 -116.5 -219t-339.5 -84l-6 167q104 0 168.5 30t65.5 97t-49.5 94t-160.5 38z" />
    <glyph glyph-name="uni00E8" unicode="&#xe8;" horiz-adv-x="1654" 
d="M863 -31q-227 0 -390.5 97.5t-252 275t-88.5 416.5q0 236 88.5 416t248 281t373.5 101q130 0 252 -43t219 -135t153 -238.5t56 -355.5v-106h-1221v224h928q0 118 -48 209.5t-134.5 144.5t-202.5 53q-126 0 -219.5 -61.5t-144 -160t-50.5 -213.5v-175q0 -154 54.5 -262
t152.5 -164.5t229 -56.5q85 0 155 24.5t121 73.5t78 121l283 -51q-34 -125 -121.5 -218.5t-219 -145t-299.5 -51.5zM714 1741l-309 461h315l233 -461h-239z" />
    <glyph glyph-name="uni00E9" unicode="&#xe9;" horiz-adv-x="1654" 
d="M863 -31q-227 0 -390.5 97.5t-252 275t-88.5 416.5q0 236 88.5 416t248 281t373.5 101q130 0 252 -43t219 -135t153 -238.5t56 -355.5v-106h-1221v224h928q0 118 -48 209.5t-134.5 144.5t-202.5 53q-126 0 -219.5 -61.5t-144 -160t-50.5 -213.5v-175q0 -154 54.5 -262
t152.5 -164.5t229 -56.5q85 0 155 24.5t121 73.5t78 121l283 -51q-34 -125 -121.5 -218.5t-219 -145t-299.5 -51.5zM707 1741l234 461h315l-310 -461h-239z" />
    <glyph glyph-name="uni00EA" unicode="&#xea;" horiz-adv-x="1654" 
d="M863 -31q-227 0 -390.5 97.5t-252 275t-88.5 416.5q0 236 88.5 416t248 281t373.5 101q130 0 252 -43t219 -135t153 -238.5t56 -355.5v-106h-1221v224h928q0 118 -48 209.5t-134.5 144.5t-202.5 53q-126 0 -219.5 -61.5t-144 -160t-50.5 -213.5v-175q0 -154 54.5 -262
t152.5 -164.5t229 -56.5q85 0 155 24.5t121 73.5t78 121l283 -51q-34 -125 -121.5 -218.5t-219 -145t-299.5 -51.5zM1036 1720l-205 268l-206 -268h-270v15l351 424h249l352 -424v-15h-271z" />
    <glyph glyph-name="uni00EB" unicode="&#xeb;" horiz-adv-x="1654" 
d="M863 -31q-227 0 -390.5 97.5t-252 275t-88.5 416.5q0 236 88.5 416t248 281t373.5 101q130 0 252 -43t219 -135t153 -238.5t56 -355.5v-106h-1221v224h928q0 118 -48 209.5t-134.5 144.5t-202.5 53q-126 0 -219.5 -61.5t-144 -160t-50.5 -213.5v-175q0 -154 54.5 -262
t152.5 -164.5t229 -56.5q85 0 155 24.5t121 73.5t78 121l283 -51q-34 -125 -121.5 -218.5t-219 -145t-299.5 -51.5zM537 1777q-71 0 -124 52.5t-53 121.5q0 75 53 125t124 50q75 0 125.5 -50t50.5 -125q0 -69 -50.5 -121.5t-125.5 -52.5zM1125 1777q-71 0 -124 52.5
t-53 121.5q0 75 53 125t124 50q75 0 125.5 -50t50.5 -125q0 -69 -50.5 -121.5t-125.5 -52.5z" />
    <glyph glyph-name="uni00EC" unicode="&#xec;" horiz-adv-x="701" 
d="M201 0v1536h299v-1536h-299zM236 1741l-309 461h315l233 -461h-239z" />
    <glyph glyph-name="uni00ED" unicode="&#xed;" horiz-adv-x="701" 
d="M201 0v1536h299v-1536h-299zM229 1741l234 461h315l-310 -461h-239z" />
    <glyph glyph-name="uni00EE" unicode="&#xee;" horiz-adv-x="701" 
d="M201 0v1536h299v-1536h-299zM557 1720l-205 268l-206 -268h-270v15l351 424h249l352 -424v-15h-271z" />
    <glyph glyph-name="uni00EF" unicode="&#xef;" horiz-adv-x="701" 
d="M201 0v1536h299v-1536h-299zM58 1777q-70 0 -123 52.5t-53 121.5q0 75 53 125t123 50q75 0 125.5 -50t50.5 -125q0 -69 -50.5 -121.5t-125.5 -52.5zM646 1777q-70 0 -123 52.5t-53 121.5q0 75 53 125t123 50q75 0 125.5 -50t50.5 -125q0 -69 -50.5 -121.5t-125.5 -52.5z
" />
    <glyph glyph-name="uni00F0" unicode="&#xf0;" horiz-adv-x="1651" 
d="M1322 1942l-860 -424l-54 164l859 423zM823 -32q-210 0 -365.5 94.5t-240.5 260t-85 381.5q0 213 81 378t220.5 258.5t314.5 93.5q108 0 191.5 -35t142.5 -89t95 -110h20q-51 130 -149.5 271t-253.5 273.5t-373 238.5l83 188q188 -77 368.5 -206.5t327 -307.5t233 -402
t86.5 -491q0 -249 -86 -427.5t-242.5 -273.5t-367.5 -95zM827 218q133 0 224 63.5t137.5 172t46.5 246.5q0 126 -42 244t-132 194t-234 76q-135 0 -224.5 -68t-133.5 -182t-44 -252q0 -132 42.5 -244.5t131 -181t228.5 -68.5z" />
    <glyph glyph-name="uni00F1" unicode="&#xf1;" horiz-adv-x="1682" 
d="M500 912v-912h-299v1536h287v-250h19q53 122 166.5 196t286.5 74q157 0 275 -65.5t183 -194.5t65 -319v-977h-299v941q0 167 -87 261.5t-239 94.5q-104 0 -184.5 -45t-127 -131.5t-46.5 -208.5zM541 1722l-201 6q0 166 89.5 265t221.5 99q61 0 107 -20.5t86.5 -47t81 -47
t90.5 -20.5q58 0 94.5 44t36.5 109l197 -13q0 -167 -90 -262.5t-221 -96.5q-71 0 -117.5 20.5t-82.5 47t-74 47.5t-91 21q-56 0 -91.5 -43.5t-35.5 -108.5z" />
    <glyph glyph-name="uni00F2" unicode="&#xf2;" horiz-adv-x="1696" 
d="M848 -31q-216 0 -377 99t-250 277t-89 416q0 239 89 418t250 278t377 99t377 -99t250 -278t89 -418q0 -238 -89 -416t-250 -277t-377 -99zM849 220q140 0 232 74t136.5 197t44.5 271q0 147 -44.5 270.5t-136.5 198.5t-232 75q-141 0 -233.5 -75t-137 -198.5t-44.5 -270.5
q0 -148 44.5 -271t137 -197t233.5 -74zM732 1741l-309 461h315l233 -461h-239z" />
    <glyph glyph-name="uni00F3" unicode="&#xf3;" horiz-adv-x="1696" 
d="M848 -31q-216 0 -377 99t-250 277t-89 416q0 239 89 418t250 278t377 99t377 -99t250 -278t89 -418q0 -238 -89 -416t-250 -277t-377 -99zM849 220q140 0 232 74t136.5 197t44.5 271q0 147 -44.5 270.5t-136.5 198.5t-232 75q-141 0 -233.5 -75t-137 -198.5t-44.5 -270.5
q0 -148 44.5 -271t137 -197t233.5 -74zM725 1741l234 461h315l-310 -461h-239z" />
    <glyph glyph-name="uni00F4" unicode="&#xf4;" horiz-adv-x="1696" 
d="M848 -31q-216 0 -377 99t-250 277t-89 416q0 239 89 418t250 278t377 99t377 -99t250 -278t89 -418q0 -238 -89 -416t-250 -277t-377 -99zM849 220q140 0 232 74t136.5 197t44.5 271q0 147 -44.5 270.5t-136.5 198.5t-232 75q-141 0 -233.5 -75t-137 -198.5t-44.5 -270.5
q0 -148 44.5 -271t137 -197t233.5 -74zM1053 1720l-205 268l-206 -268h-270v15l351 424h249l352 -424v-15h-271z" />
    <glyph glyph-name="uni00F5" unicode="&#xf5;" horiz-adv-x="1696" 
d="M848 -31q-216 0 -377 99t-250 277t-89 416q0 239 89 418t250 278t377 99t377 -99t250 -278t89 -418q0 -238 -89 -416t-250 -277t-377 -99zM849 220q140 0 232 74t136.5 197t44.5 271q0 147 -44.5 270.5t-136.5 198.5t-232 75q-141 0 -233.5 -75t-137 -198.5t-44.5 -270.5
q0 -148 44.5 -271t137 -197t233.5 -74zM547 1722l-201 6q0 166 89.5 265t221.5 99q61 0 107 -20.5t86.5 -47t81 -47t90.5 -20.5q58 0 94.5 44t36.5 109l197 -13q0 -167 -90 -262.5t-221 -96.5q-71 0 -117.5 20.5t-82.5 47t-74 47.5t-91 21q-56 0 -91.5 -43.5t-35.5 -108.5z
" />
    <glyph glyph-name="uni00F6" unicode="&#xf6;" horiz-adv-x="1696" 
d="M848 -31q-216 0 -377 99t-250 277t-89 416q0 239 89 418t250 278t377 99t377 -99t250 -278t89 -418q0 -238 -89 -416t-250 -277t-377 -99zM849 220q140 0 232 74t136.5 197t44.5 271q0 147 -44.5 270.5t-136.5 198.5t-232 75q-141 0 -233.5 -75t-137 -198.5t-44.5 -270.5
q0 -148 44.5 -271t137 -197t233.5 -74zM554 1777q-70 0 -123 52.5t-53 121.5q0 75 53 125t123 50q75 0 125.5 -50t50.5 -125q0 -69 -50.5 -121.5t-125.5 -52.5zM1142 1777q-70 0 -123 52.5t-53 121.5q0 75 53 125t123 50q75 0 125.5 -50t50.5 -125q0 -69 -50.5 -121.5
t-125.5 -52.5z" />
    <glyph glyph-name="uni00F7" unicode="&#xf7;" horiz-adv-x="1875" 
d="M1598 938v-263h-1320v263h1320zM938 77q-84 0 -142.5 58.5t-58.5 142.5q0 80 58.5 138t142.5 58q80 0 138 -58t58 -138q0 -84 -58 -142.5t-138 -58.5zM938 1138q-56 0 -101.5 27t-72.5 73t-27 101q0 81 58.5 139t142.5 58q81 0 138.5 -58t57.5 -139q0 -83 -57.5 -142
t-138.5 -59z" />
    <glyph glyph-name="uni00F8" unicode="&#xf8;" horiz-adv-x="1696" 
d="M390 -89l-167 114l1083 1588l167 -114zM848 -32q-216 0 -377 99t-250 277t-89 416q0 239 89 418t250 278t377 99t377 -99t250 -278t89 -418q0 -238 -89 -416t-250 -277t-377 -99zM849 219q140 0 232 74.5t136.5 197.5t44.5 270t-44.5 271t-136.5 199t-232 75
q-141 0 -233.5 -75t-137 -199t-44.5 -271t44.5 -270t137 -197.5t233.5 -74.5z" />
    <glyph glyph-name="uni00F9" unicode="&#xf9;" horiz-adv-x="1674" 
d="M1174 637v899h300v-1536h-294v266h-16q-53 -123 -169.5 -204.5t-289.5 -81.5q-148 0 -261.5 65.5t-178 194.5t-64.5 319v977h299v-941q0 -157 87 -250t226 -93q84 0 167.5 42t139 127t54.5 216zM723 1741l-309 461h315l233 -461h-239z" />
    <glyph glyph-name="uni00FA" unicode="&#xfa;" horiz-adv-x="1674" 
d="M1174 637v899h300v-1536h-294v266h-16q-53 -123 -169.5 -204.5t-289.5 -81.5q-148 0 -261.5 65.5t-178 194.5t-64.5 319v977h299v-941q0 -157 87 -250t226 -93q84 0 167.5 42t139 127t54.5 216zM716 1741l234 461h315l-310 -461h-239z" />
    <glyph glyph-name="uni00FB" unicode="&#xfb;" horiz-adv-x="1674" 
d="M1174 637v899h300v-1536h-294v266h-16q-53 -123 -169.5 -204.5t-289.5 -81.5q-148 0 -261.5 65.5t-178 194.5t-64.5 319v977h299v-941q0 -157 87 -250t226 -93q84 0 167.5 42t139 127t54.5 216zM1045 1720l-205 268l-206 -268h-270v15l351 424h249l352 -424v-15h-271z
" />
    <glyph glyph-name="uni00FC" unicode="&#xfc;" horiz-adv-x="1674" 
d="M1174 637v899h300v-1536h-294v266h-16q-53 -123 -169.5 -204.5t-289.5 -81.5q-148 0 -261.5 65.5t-178 194.5t-64.5 319v977h299v-941q0 -157 87 -250t226 -93q84 0 167.5 42t139 127t54.5 216zM546 1777q-71 0 -124 52.5t-53 121.5q0 75 53 125t124 50q75 0 125.5 -50
t50.5 -125q0 -69 -50.5 -121.5t-125.5 -52.5zM1134 1777q-71 0 -124 52.5t-53 121.5q0 75 53 125t124 50q75 0 125.5 -50t50.5 -125q0 -69 -50.5 -121.5t-125.5 -52.5z" />
    <glyph glyph-name="uni00FD" unicode="&#xfd;" horiz-adv-x="1595" 
d="M390 -576q-67 0 -122 10.5t-82 22.5l72 245q82 -22 146 -19t113.5 48t87.5 147l37 102l-562 1556h320l389 -1192h16l389 1192h321l-633 -1741q-44 -120 -112 -203.5t-162 -125.5t-218 -42zM673 1741l234 461h315l-310 -461h-239z" />
    <glyph glyph-name="uni00FE" unicode="&#xfe;" horiz-adv-x="1719" 
d="M201 2048h299v-848l-90 -427l90 -480v-869h-299v2624zM379 1314h140q26 45 73.5 101.5t131 98.5t217.5 42q185 0 331 -94t230 -271t84 -426t-83.5 -426.5t-228.5 -273t-331 -95.5q-131 0 -215 41.5t-133 98.5t-76 104h-140v1100zM1294 768q0 154 -45.5 274.5t-137 190
t-229.5 69.5q-134 0 -222.5 -68.5t-132.5 -188.5t-44 -277q0 -158 44.5 -280.5t133 -192.5t221.5 -70q137 0 228 70.5t137.5 193.5t46.5 279z" />
    <glyph glyph-name="uni00FF" unicode="&#xff;" horiz-adv-x="1595" 
d="M390 -576q-67 0 -122 10.5t-82 22.5l72 245q82 -22 146 -19t113.5 48t87.5 147l37 102l-562 1556h320l389 -1192h16l389 1192h321l-633 -1741q-44 -120 -112 -203.5t-162 -125.5t-218 -42zM503 1777q-71 0 -124 52.5t-53 121.5q0 75 53 125t124 50q75 0 125.5 -50
t50.5 -125q0 -69 -50.5 -121.5t-125.5 -52.5zM1091 1777q-71 0 -124 52.5t-53 121.5q0 75 53 125t124 50q75 0 125.5 -50t50.5 -125q0 -69 -50.5 -121.5t-125.5 -52.5z" />
    <glyph glyph-name="uni0100" unicode="&#x100;" horiz-adv-x="1971" 
d="M398 0h-328l737 2048h357l737 -2048h-328l-579 1676h-16zM453 802h1064v-260h-1064v260zM1460 2560v-210h-949v210h949z" />
    <glyph glyph-name="uni0101" unicode="&#x101;" horiz-adv-x="1603" 
d="M648 -34q-146 0 -264 54.5t-186.5 158.5t-68.5 255q0 130 50 214t135 133t190 74t214 38q138 16 224 26.5t125 34.5t39 78v7q0 131 -73.5 203t-218.5 72q-151 0 -237.5 -66.5t-119.5 -147.5l-281 64q50 140 146.5 226.5t222.5 126t265 39.5q92 0 195.5 -21.5t194 -78.5
t148.5 -162.5t58 -273.5v-1020h-292v210h-12q-29 -58 -87 -114t-149 -93t-218 -37zM713 206q124 0 212.5 49t135 128.5t46.5 170.5v198q-16 -16 -61.5 -29.5t-103.5 -23t-113 -17t-92 -12.5q-87 -11 -158.5 -37t-114 -74.5t-42.5 -128.5q0 -111 82 -167.5t209 -56.5z
M1300 2048v-210h-949v210h949z" />
    <glyph glyph-name="uni0102" unicode="&#x102;" horiz-adv-x="1971" 
d="M398 0h-328l737 2048h357l737 -2048h-328l-579 1676h-16zM453 802h1064v-260h-1064v260zM1182 2568h246q0 -169 -119.5 -274.5t-322.5 -105.5q-202 0 -321 105.5t-119 274.5h245q0 -75 44 -132.5t151 -57.5q105 0 150.5 57t45.5 133z" />
    <glyph glyph-name="uni0103" unicode="&#x103;" horiz-adv-x="1603" 
d="M648 -34q-146 0 -264 54.5t-186.5 158.5t-68.5 255q0 130 50 214t135 133t190 74t214 38q138 16 224 26.5t125 34.5t39 78v7q0 131 -73.5 203t-218.5 72q-151 0 -237.5 -66.5t-119.5 -147.5l-281 64q50 140 146.5 226.5t222.5 126t265 39.5q92 0 195.5 -21.5t194 -78.5
t148.5 -162.5t58 -273.5v-1020h-292v210h-12q-29 -58 -87 -114t-149 -93t-218 -37zM713 206q124 0 212.5 49t135 128.5t46.5 170.5v198q-16 -16 -61.5 -29.5t-103.5 -23t-113 -17t-92 -12.5q-87 -11 -158.5 -37t-114 -74.5t-42.5 -128.5q0 -111 82 -167.5t209 -56.5z
M1022 2056h246q0 -169 -119.5 -274.5t-322.5 -105.5q-202 0 -321 105.5t-119 274.5h245q0 -75 44 -132.5t151 -57.5q105 0 150.5 57t45.5 133z" />
    <glyph glyph-name="uni0104" unicode="&#x104;" horiz-adv-x="1971" 
d="M398 0h-328l737 2048h357l737 -2048h-328l-579 1676h-16zM453 802h1064v-260h-1064v260zM1710 -591q-126 0 -209.5 67.5t-91.5 196.5q-5 76 25 153t101 146t188 122l178 -94q-92 -59 -159 -125t-67 -150q0 -46 23 -72t79 -26q41 0 73 11t52 21l26 -190
q-35 -21 -89.5 -40.5t-128.5 -19.5z" />
    <glyph glyph-name="uni0105" unicode="&#x105;" horiz-adv-x="1603" 
d="M648 -34q-146 0 -264 54.5t-186.5 158.5t-68.5 255q0 130 50 214t135 133t190 74t214 38q138 16 224 26.5t125 34.5t39 78v7q0 131 -73.5 203t-218.5 72q-151 0 -237.5 -66.5t-119.5 -147.5l-281 64q50 140 146.5 226.5t222.5 126t265 39.5q92 0 195.5 -21.5t194 -78.5
t148.5 -162.5t58 -273.5v-1020h-292v210h-12q-29 -58 -87 -114t-149 -93t-218 -37zM713 206q124 0 212.5 49t135 128.5t46.5 170.5v198q-16 -16 -61.5 -29.5t-103.5 -23t-113 -17t-92 -12.5q-87 -11 -158.5 -37t-114 -74.5t-42.5 -128.5q0 -111 82 -167.5t209 -56.5z
M1215 -591q-126 0 -209.5 67.5t-91.5 196.5q-5 76 25 153t101 146t188 122l178 -94q-92 -59 -159 -125t-67 -150q0 -46 23 -72t79 -26q41 0 73 11t52 21l26 -190q-35 -21 -89.5 -40.5t-128.5 -19.5z" />
    <glyph glyph-name="uni0106" unicode="&#x106;" horiz-adv-x="2071" 
d="M1926 1382h-312q-18 100 -67 176t-120 129t-158.5 80t-185.5 27q-177 0 -316.5 -89t-220 -261t-80.5 -420q0 -250 80.5 -422t220.5 -260t315 -88q97 0 184.5 26.5t158.5 78.5t120.5 127.5t68.5 173.5l312 -1q-25 -151 -96.5 -277.5t-183 -218t-254.5 -141.5t-312 -50
q-266 0 -474 126.5t-327.5 362.5t-119.5 563q0 328 120 563.5t328 362t473 126.5q163 0 304.5 -46.5t254.5 -136t187 -218t100 -293.5zM957 2253l234 461h315l-310 -461h-239z" />
    <glyph glyph-name="uni0107" unicode="&#x107;" horiz-adv-x="1599" 
d="M848 -31q-223 0 -383.5 101.5t-246.5 280.5t-86 410q0 234 88 413.5t248 280.5t377 101q175 0 312 -64.5t221.5 -180.5t100.5 -271h-291q-24 108 -109.5 186t-228.5 78q-125 0 -218.5 -65.5t-145.5 -186t-52 -284.5q0 -168 51 -290t144.5 -189t220.5 -67q85 0 154.5 31.5
t117 90.5t66.5 142h291q-16 -149 -97 -266t-216.5 -184t-317.5 -67zM719 1741l234 461h315l-310 -461h-239z" />
    <glyph glyph-name="uni0108" unicode="&#x108;" horiz-adv-x="2071" 
d="M1926 1382h-312q-18 100 -67 176t-120 129t-158.5 80t-185.5 27q-177 0 -316.5 -89t-220 -261t-80.5 -420q0 -250 80.5 -422t220.5 -260t315 -88q97 0 184.5 26.5t158.5 78.5t120.5 127.5t68.5 173.5l312 -1q-25 -151 -96.5 -277.5t-183 -218t-254.5 -141.5t-312 -50
q-266 0 -474 126.5t-327.5 362.5t-119.5 563q0 328 120 563.5t328 362t473 126.5q163 0 304.5 -46.5t254.5 -136t187 -218t100 -293.5zM1285 2232l-205 268l-206 -268h-270v15l351 424h249l352 -424v-15h-271z" />
    <glyph glyph-name="uni0109" unicode="&#x109;" horiz-adv-x="1599" 
d="M848 -31q-223 0 -383.5 101.5t-246.5 280.5t-86 410q0 234 88 413.5t248 280.5t377 101q175 0 312 -64.5t221.5 -180.5t100.5 -271h-291q-24 108 -109.5 186t-228.5 78q-125 0 -218.5 -65.5t-145.5 -186t-52 -284.5q0 -168 51 -290t144.5 -189t220.5 -67q85 0 154.5 31.5
t117 90.5t66.5 142h291q-16 -149 -97 -266t-216.5 -184t-317.5 -67zM1048 1720l-205 268l-206 -268h-270v15l351 424h249l352 -424v-15h-271z" />
    <glyph glyph-name="uni010A" unicode="&#x10a;" horiz-adv-x="2071" 
d="M1926 1382h-312q-18 100 -67 176t-120 129t-158.5 80t-185.5 27q-177 0 -316.5 -89t-220 -261t-80.5 -420q0 -250 80.5 -422t220.5 -260t315 -88q97 0 184.5 26.5t158.5 78.5t120.5 127.5t68.5 173.5l312 -1q-25 -151 -96.5 -277.5t-183 -218t-254.5 -141.5t-312 -50
q-266 0 -474 126.5t-327.5 362.5t-119.5 563q0 328 120 563.5t328 362t473 126.5q163 0 304.5 -46.5t254.5 -136t187 -218t100 -293.5zM1080 2285q-78 0 -133.5 52.5t-55.5 125.5q0 74 55.5 126.5t133.5 52.5t133.5 -52.5t55.5 -126.5q0 -73 -55.5 -125.5t-133.5 -52.5z" />
    <glyph glyph-name="uni010B" unicode="&#x10b;" horiz-adv-x="1599" 
d="M848 -31q-223 0 -383.5 101.5t-246.5 280.5t-86 410q0 234 88 413.5t248 280.5t377 101q175 0 312 -64.5t221.5 -180.5t100.5 -271h-291q-24 108 -109.5 186t-228.5 78q-125 0 -218.5 -65.5t-145.5 -186t-52 -284.5q0 -168 51 -290t144.5 -189t220.5 -67q85 0 154.5 31.5
t117 90.5t66.5 142h291q-16 -149 -97 -266t-216.5 -184t-317.5 -67zM843 1773q-78 0 -133.5 52.5t-55.5 125.5q0 74 55.5 126.5t133.5 52.5t133.5 -52.5t55.5 -126.5q0 -73 -55.5 -125.5t-133.5 -52.5z" />
    <glyph glyph-name="uni010C" unicode="&#x10c;" horiz-adv-x="2071" 
d="M1926 1382h-312q-18 100 -67 176t-120 129t-158.5 80t-185.5 27q-177 0 -316.5 -89t-220 -261t-80.5 -420q0 -250 80.5 -422t220.5 -260t315 -88q97 0 184.5 26.5t158.5 78.5t120.5 127.5t68.5 173.5l312 -1q-25 -151 -96.5 -277.5t-183 -218t-254.5 -141.5t-312 -50
q-266 0 -474 126.5t-327.5 362.5t-119.5 563q0 328 120 563.5t328 362t473 126.5q163 0 304.5 -46.5t254.5 -136t187 -218t100 -293.5zM874 2671l206 -268l205 268h271v-15l-352 -424h-249l-351 424v15h270z" />
    <glyph glyph-name="uni010D" unicode="&#x10d;" horiz-adv-x="1599" 
d="M848 -31q-223 0 -383.5 101.5t-246.5 280.5t-86 410q0 234 88 413.5t248 280.5t377 101q175 0 312 -64.5t221.5 -180.5t100.5 -271h-291q-24 108 -109.5 186t-228.5 78q-125 0 -218.5 -65.5t-145.5 -186t-52 -284.5q0 -168 51 -290t144.5 -189t220.5 -67q85 0 154.5 31.5
t117 90.5t66.5 142h291q-16 -149 -97 -266t-216.5 -184t-317.5 -67zM637 2159l206 -268l205 268h271v-15l-352 -424h-249l-351 424v15h270z" />
    <glyph glyph-name="uni010E" unicode="&#x10e;" horiz-adv-x="2032" 
d="M888 0h-663v2048h684q301 0 517 -122.5t331.5 -351t115.5 -547.5q0 -320 -116.5 -550t-336.5 -353.5t-532 -123.5zM534 270h337q234 0 389 88.5t232 257t77 411.5q0 241 -76.5 409t-227.5 255t-375 87h-356v-1508zM636 2671l206 -268l205 268h271v-15l-352 -424h-249
l-351 424v15h270z" />
    <glyph glyph-name="uni010F" unicode="&#x10f;" horiz-adv-x="1962" 
d="M776 -30q-186 0 -331.5 95.5t-228 273t-82.5 426.5t83.5 426t229.5 271t331 94q143 0 230.5 -47.5t136 -110.5t75.5 -111h18v761h299v-2048h-292v239h-25q-27 -49 -77.5 -112t-138.5 -110t-228 -47zM842 225q129 0 218.5 68.5t136 190.5t46.5 284q0 160 -46 280t-135 187
t-220 67q-135 0 -225 -70t-135.5 -191t-45.5 -273q0 -154 46 -277t136.5 -194.5t223.5 -71.5zM1725 1626v521h268l-70 -521h-198z" />
    <glyph glyph-name="uni0110" unicode="&#x110;" horiz-adv-x="2032" 
d="M888 0h-506v270h489q234 0 389 88.5t232 257t77 411.5q0 241 -76.5 409t-227.5 255t-375 87h-519v270h538q301 0 517 -122.5t331.5 -351t115.5 -547.5q0 -320 -116.5 -550t-336.5 -353.5t-532 -123.5zM534 2048v-2048h-309v2048h309zM-81 961v206h919v-206h-919z" />
    <glyph glyph-name="uni0111" unicode="&#x111;" horiz-adv-x="1762" 
d="M776 -30q-186 0 -331.5 95.5t-228 273t-82.5 426.5t83.5 426t229.5 271t331 94q143 0 230.5 -47.5t136 -110.5t75.5 -111h18v761h299v-2048h-292v239h-25q-27 -49 -77.5 -112t-138.5 -110t-228 -47zM842 225q129 0 218.5 68.5t136 190.5t46.5 284q0 160 -46 280t-135 187
t-220 67q-135 0 -225 -70t-135.5 -191t-45.5 -273q0 -154 46 -277t136.5 -194.5t223.5 -71.5zM823 1659v207h919v-207h-919z" />
    <glyph glyph-name="uni0112" unicode="&#x112;" horiz-adv-x="1698" 
d="M225 0v2048h1284v-266h-975v-624h908v-265h-908v-627h987v-266h-1296zM1341 2560v-210h-949v210h949z" />
    <glyph glyph-name="uni0113" unicode="&#x113;" horiz-adv-x="1654" 
d="M863 -31q-227 0 -390.5 97.5t-252 275t-88.5 416.5q0 236 88.5 416t248 281t373.5 101q130 0 252 -43t219 -135t153 -238.5t56 -355.5v-106h-1221v224h928q0 118 -48 209.5t-134.5 144.5t-202.5 53q-126 0 -219.5 -61.5t-144 -160t-50.5 -213.5v-175q0 -154 54.5 -262
t152.5 -164.5t229 -56.5q85 0 155 24.5t121 73.5t78 121l283 -51q-34 -125 -121.5 -218.5t-219 -145t-299.5 -51.5zM1305 2048v-210h-949v210h949z" />
    <glyph glyph-name="uni0114" unicode="&#x114;" horiz-adv-x="1698" 
d="M225 0v2048h1284v-266h-975v-624h908v-265h-908v-627h987v-266h-1296zM1063 2568h246q0 -169 -119.5 -274.5t-322.5 -105.5q-202 0 -321 105.5t-119 274.5h245q0 -75 44 -132.5t151 -57.5q105 0 150.5 57t45.5 133z" />
    <glyph glyph-name="uni0115" unicode="&#x115;" horiz-adv-x="1654" 
d="M863 -31q-227 0 -390.5 97.5t-252 275t-88.5 416.5q0 236 88.5 416t248 281t373.5 101q130 0 252 -43t219 -135t153 -238.5t56 -355.5v-106h-1221v224h928q0 118 -48 209.5t-134.5 144.5t-202.5 53q-126 0 -219.5 -61.5t-144 -160t-50.5 -213.5v-175q0 -154 54.5 -262
t152.5 -164.5t229 -56.5q85 0 155 24.5t121 73.5t78 121l283 -51q-34 -125 -121.5 -218.5t-219 -145t-299.5 -51.5zM1027 2056h246q0 -169 -119.5 -274.5t-322.5 -105.5q-202 0 -321 105.5t-119 274.5h245q0 -75 44 -132.5t151 -57.5q105 0 150.5 57t45.5 133z" />
    <glyph glyph-name="uni0116" unicode="&#x116;" horiz-adv-x="1698" 
d="M225 0v2048h1284v-266h-975v-624h908v-265h-908v-627h987v-266h-1296zM867 2285q-78 0 -133.5 52.5t-55.5 125.5q0 74 55.5 126.5t133.5 52.5t133.5 -52.5t55.5 -126.5q0 -73 -55.5 -125.5t-133.5 -52.5z" />
    <glyph glyph-name="uni0117" unicode="&#x117;" horiz-adv-x="1654" 
d="M863 -31q-227 0 -390.5 97.5t-252 275t-88.5 416.5q0 236 88.5 416t248 281t373.5 101q130 0 252 -43t219 -135t153 -238.5t56 -355.5v-106h-1221v224h928q0 118 -48 209.5t-134.5 144.5t-202.5 53q-126 0 -219.5 -61.5t-144 -160t-50.5 -213.5v-175q0 -154 54.5 -262
t152.5 -164.5t229 -56.5q85 0 155 24.5t121 73.5t78 121l283 -51q-34 -125 -121.5 -218.5t-219 -145t-299.5 -51.5zM831 1773q-78 0 -133.5 52.5t-55.5 125.5q0 74 55.5 126.5t133.5 52.5t133.5 -52.5t55.5 -126.5q0 -73 -55.5 -125.5t-133.5 -52.5z" />
    <glyph glyph-name="uni0118" unicode="&#x118;" horiz-adv-x="1698" 
d="M225 0v2048h1284v-266h-975v-624h908v-265h-908v-627h987v-266h-1296zM1330 -591q-126 0 -209.5 67.5t-91.5 196.5q-5 76 25 153t101 146t188 122l178 -94q-92 -59 -159 -125t-67 -150q0 -46 23 -72t79 -26q41 0 73 11t52 21l26 -190q-35 -21 -89.5 -40.5t-128.5 -19.5z
" />
    <glyph glyph-name="uni0119" unicode="&#x119;" horiz-adv-x="1654" 
d="M863 -31q-227 0 -390.5 97.5t-252 275t-88.5 416.5q0 236 88.5 416t248 281t373.5 101q130 0 252 -43t219 -135t153 -238.5t56 -355.5v-106h-1221v224h928q0 118 -48 209.5t-134.5 144.5t-202.5 53q-126 0 -219.5 -61.5t-144 -160t-50.5 -213.5v-175q0 -154 54.5 -262
t152.5 -164.5t229 -56.5q85 0 155 24.5t121 73.5t78 121l283 -51q-34 -125 -121.5 -218.5t-219 -145t-299.5 -51.5zM917 -577q-126 0 -209.5 67.5t-91.5 196.5q-5 76 25 153t101 146t188 122l178 -94q-92 -59 -159 -125t-67 -150q0 -46 23 -72t79 -26q41 0 73 11t52 21
l26 -190q-35 -21 -89.5 -40.5t-128.5 -19.5z" />
    <glyph glyph-name="uni011A" unicode="&#x11a;" horiz-adv-x="1698" 
d="M225 0v2048h1284v-266h-975v-624h908v-265h-908v-627h987v-266h-1296zM661 2671l206 -268l205 268h271v-15l-352 -424h-249l-351 424v15h270z" />
    <glyph glyph-name="uni011B" unicode="&#x11b;" horiz-adv-x="1654" 
d="M863 -31q-227 0 -390.5 97.5t-252 275t-88.5 416.5q0 236 88.5 416t248 281t373.5 101q130 0 252 -43t219 -135t153 -238.5t56 -355.5v-106h-1221v224h928q0 118 -48 209.5t-134.5 144.5t-202.5 53q-126 0 -219.5 -61.5t-144 -160t-50.5 -213.5v-175q0 -154 54.5 -262
t152.5 -164.5t229 -56.5q85 0 155 24.5t121 73.5t78 121l283 -51q-34 -125 -121.5 -218.5t-219 -145t-299.5 -51.5zM625 2159l206 -268l205 268h271v-15l-352 -424h-249l-351 424v15h270z" />
    <glyph glyph-name="uni011C" unicode="&#x11c;" horiz-adv-x="2109" 
d="M1611 1401q-29 91 -77.5 163.5t-115.5 124t-152.5 78.5t-187.5 27q-173 0 -312 -89t-219.5 -260.5t-80.5 -419.5q0 -249 81 -421t222 -261t321 -89q167 0 291.5 68t193 192.5t68.5 293.5l80 -15h-586v255h805v-233q0 -258 -109.5 -447.5t-302 -292.5t-440.5 -103
q-278 0 -487.5 128t-326.5 363.5t-117 559.5q0 245 68 440t191.5 331.5t291 209t366.5 72.5q166 0 309.5 -49t256 -139t186.5 -213.5t100 -273.5h-317zM1278 2232l-205 268l-206 -268h-270v15l351 424h249l352 -424v-15h-271z" />
    <glyph glyph-name="uni011D" unicode="&#x11d;" horiz-adv-x="1738" 
d="M845 -608q-183 0 -314.5 48t-214.5 127t-124 173l257 106q27 -44 72.5 -93.5t124 -84.5t202.5 -35q170 0 281 82.5t111 262.5v302h-19q-27 -49 -77.5 -109t-138.5 -104t-229 -44q-182 0 -327.5 85.5t-230 253t-84.5 412.5t83.5 420t229.5 268.5t331 93.5q143 0 231 -47.5
t137.5 -110.5t76.5 -111h22v249h293v-1570q0 -198 -92 -325t-248.5 -188t-352.5 -61zM842 271q129 0 218.5 60.5t136 174t46.5 272.5q0 155 -46 273t-135 184.5t-220 66.5q-135 0 -225 -69.5t-135.5 -188.5t-45.5 -266q0 -151 46 -265t136.5 -178t223.5 -64zM1069 1720
l-205 268l-206 -268h-270v15l351 424h249l352 -424v-15h-271z" />
    <glyph glyph-name="uni011E" unicode="&#x11e;" horiz-adv-x="2109" 
d="M1611 1401q-29 91 -77.5 163.5t-115.5 124t-152.5 78.5t-187.5 27q-173 0 -312 -89t-219.5 -260.5t-80.5 -419.5q0 -249 81 -421t222 -261t321 -89q167 0 291.5 68t193 192.5t68.5 293.5l80 -15h-586v255h805v-233q0 -258 -109.5 -447.5t-302 -292.5t-440.5 -103
q-278 0 -487.5 128t-326.5 363.5t-117 559.5q0 245 68 440t191.5 331.5t291 209t366.5 72.5q166 0 309.5 -49t256 -139t186.5 -213.5t100 -273.5h-317zM1269 2568h246q0 -169 -119.5 -274.5t-322.5 -105.5q-202 0 -321 105.5t-119 274.5h245q0 -75 44 -132.5t151 -57.5
q105 0 150.5 57t45.5 133z" />
    <glyph glyph-name="uni011F" unicode="&#x11f;" horiz-adv-x="1738" 
d="M845 -608q-183 0 -314.5 48t-214.5 127t-124 173l257 106q27 -44 72.5 -93.5t124 -84.5t202.5 -35q170 0 281 82.5t111 262.5v302h-19q-27 -49 -77.5 -109t-138.5 -104t-229 -44q-182 0 -327.5 85.5t-230 253t-84.5 412.5t83.5 420t229.5 268.5t331 93.5q143 0 231 -47.5
t137.5 -110.5t76.5 -111h22v249h293v-1570q0 -198 -92 -325t-248.5 -188t-352.5 -61zM842 271q129 0 218.5 60.5t136 174t46.5 272.5q0 155 -46 273t-135 184.5t-220 66.5q-135 0 -225 -69.5t-135.5 -188.5t-45.5 -266q0 -151 46 -265t136.5 -178t223.5 -64zM1060 2056h246
q0 -169 -119.5 -274.5t-322.5 -105.5q-202 0 -321 105.5t-119 274.5h245q0 -75 44 -132.5t151 -57.5q105 0 150.5 57t45.5 133z" />
    <glyph glyph-name="uni0120" unicode="&#x120;" horiz-adv-x="2109" 
d="M1611 1401q-29 91 -77.5 163.5t-115.5 124t-152.5 78.5t-187.5 27q-173 0 -312 -89t-219.5 -260.5t-80.5 -419.5q0 -249 81 -421t222 -261t321 -89q167 0 291.5 68t193 192.5t68.5 293.5l80 -15h-586v255h805v-233q0 -258 -109.5 -447.5t-302 -292.5t-440.5 -103
q-278 0 -487.5 128t-326.5 363.5t-117 559.5q0 245 68 440t191.5 331.5t291 209t366.5 72.5q166 0 309.5 -49t256 -139t186.5 -213.5t100 -273.5h-317zM1073 2285q-78 0 -133.5 52.5t-55.5 125.5q0 74 55.5 126.5t133.5 52.5t133.5 -52.5t55.5 -126.5q0 -73 -55.5 -125.5
t-133.5 -52.5z" />
    <glyph glyph-name="uni0121" unicode="&#x121;" horiz-adv-x="1738" 
d="M845 -608q-183 0 -314.5 48t-214.5 127t-124 173l257 106q27 -44 72.5 -93.5t124 -84.5t202.5 -35q170 0 281 82.5t111 262.5v302h-19q-27 -49 -77.5 -109t-138.5 -104t-229 -44q-182 0 -327.5 85.5t-230 253t-84.5 412.5t83.5 420t229.5 268.5t331 93.5q143 0 231 -47.5
t137.5 -110.5t76.5 -111h22v249h293v-1570q0 -198 -92 -325t-248.5 -188t-352.5 -61zM842 271q129 0 218.5 60.5t136 174t46.5 272.5q0 155 -46 273t-135 184.5t-220 66.5q-135 0 -225 -69.5t-135.5 -188.5t-45.5 -266q0 -151 46 -265t136.5 -178t223.5 -64zM864 1773
q-78 0 -133.5 52.5t-55.5 125.5q0 74 55.5 126.5t133.5 52.5t133.5 -52.5t55.5 -126.5q0 -73 -55.5 -125.5t-133.5 -52.5z" />
    <glyph glyph-name="uni0122" unicode="&#x122;" horiz-adv-x="2109" 
d="M1611 1401q-29 91 -77.5 163.5t-115.5 124t-152.5 78.5t-187.5 27q-173 0 -312 -89t-219.5 -260.5t-80.5 -419.5q0 -249 81 -421t222 -261t321 -89q167 0 291.5 68t193 192.5t68.5 293.5l80 -15h-586v255h805v-233q0 -258 -109.5 -447.5t-302 -292.5t-440.5 -103
q-278 0 -487.5 128t-326.5 363.5t-117 559.5q0 245 68 440t191.5 331.5t291 209t366.5 72.5q166 0 309.5 -49t256 -139t186.5 -213.5t100 -273.5h-317zM807 -670l116 510h293l-187 -510h-222z" />
    <glyph glyph-name="uni0123" unicode="&#x123;" horiz-adv-x="1738" 
d="M845 -608q-183 0 -314.5 48t-214.5 127t-124 173l257 106q27 -44 72.5 -93.5t124 -84.5t202.5 -35q170 0 281 82.5t111 262.5v302h-19q-27 -49 -77.5 -109t-138.5 -104t-229 -44q-182 0 -327.5 85.5t-230 253t-84.5 412.5t83.5 420t229.5 268.5t331 93.5q143 0 231 -47.5
t137.5 -110.5t76.5 -111h22v249h293v-1570q0 -198 -92 -325t-248.5 -188t-352.5 -61zM842 271q129 0 218.5 60.5t136 174t46.5 272.5q0 155 -46 273t-135 184.5t-220 66.5q-135 0 -225 -69.5t-135.5 -188.5t-45.5 -266q0 -151 46 -265t136.5 -178t223.5 -64zM713 1743v181
q0 91 30.5 176.5t77.5 153t96 105.5l175 -118q-44 -76 -65.5 -155t-21.5 -175l-2 -168h-290z" />
    <glyph glyph-name="uni0124" unicode="&#x124;" horiz-adv-x="2090" 
d="M225 0v2048h309v-890h1021v890h310v-2048h-310v893h-1021v-893h-309zM1258 2235l-205 268l-206 -268h-270v15l351 424h249l352 -424v-15h-271z" />
    <glyph glyph-name="uni0125" unicode="&#x125;" horiz-adv-x="1695" 
d="M500 912v-912h-299v2048h295v-762h19q54 124 165 197t290 73q158 0 276.5 -65t184 -193.5t65.5 -320.5v-977h-299v941q0 169 -87 262.5t-242 93.5q-106 0 -189.5 -45t-131 -131.5t-47.5 -208.5zM556 2232l-205 268l-206 -268h-270v15l351 424h249l352 -424v-15h-271z" />
    <glyph glyph-name="uni0126" unicode="&#x126;" horiz-adv-x="2219" 
d="M2095 1642v-220h-1971v220h1971zM290 0v2048h309v-890h1021v890h310v-2048h-310v893h-1021v-893h-309z" />
    <glyph glyph-name="uni0127" unicode="&#x127;" horiz-adv-x="1695" 
d="M500 912v-912h-299v2048h295v-762h19q54 124 165 197t290 73q158 0 276.5 -65t184 -193.5t65.5 -320.5v-977h-299v941q0 169 -87 262.5t-242 93.5q-106 0 -189.5 -45t-131 -131.5t-47.5 -208.5zM-110 1682v207h919v-207h-919z" />
    <glyph glyph-name="uni0128" unicode="&#x128;" horiz-adv-x="1255" 
d="M781 2048v-2048h-309v2048h309zM326 2234l-201 6q0 166 89.5 265t221.5 99q61 0 107 -20.5t86.5 -47t81 -47t90.5 -20.5q58 0 94.5 44t36.5 109l197 -13q0 -167 -90 -262.5t-221 -96.5q-71 0 -117.5 20.5t-82.5 47t-74 47.5t-91 21q-56 0 -91.5 -43.5t-35.5 -108.5z" />
    <glyph glyph-name="uni0129" unicode="&#x129;" horiz-adv-x="794" 
d="M249 0v1536h299v-1536h-299zM99 1722l-201 6q0 166 89.5 265t221.5 99q61 0 107 -20.5t86.5 -47t81 -47t90.5 -20.5q58 0 94.5 44t36.5 109l197 -13q0 -167 -90 -262.5t-221 -96.5q-71 0 -117.5 20.5t-82.5 47t-74 47.5t-91 21q-56 0 -91.5 -43.5t-35.5 -108.5z" />
    <glyph glyph-name="uni012A" unicode="&#x12a;" horiz-adv-x="759" 
d="M534 2048v-2048h-309v2048h309zM855 2560v-210h-949v210h949z" />
    <glyph glyph-name="uni012B" unicode="&#x12b;" horiz-adv-x="701" 
d="M201 0v1536h299v-1536h-299zM827 2048v-210h-949v210h949z" />
    <glyph glyph-name="uni012C" unicode="&#x12c;" horiz-adv-x="759" 
d="M534 2048v-2048h-309v2048h309zM576 2568h246q0 -169 -119.5 -274.5t-322.5 -105.5q-202 0 -321 105.5t-119 274.5h245q0 -75 44 -132.5t151 -57.5q105 0 150.5 57t45.5 133z" />
    <glyph glyph-name="uni012D" unicode="&#x12d;" horiz-adv-x="701" 
d="M201 0v1536h299v-1536h-299zM548 2056h246q0 -169 -119.5 -274.5t-322.5 -105.5q-202 0 -321 105.5t-119 274.5h245q0 -75 44 -132.5t151 -57.5q105 0 150.5 57t45.5 133z" />
    <glyph glyph-name="uni012E" unicode="&#x12e;" horiz-adv-x="759" 
d="M534 2048v-2048h-309v2048h309zM344 -591q-126 0 -209.5 67.5t-91.5 196.5q-5 76 25 153t101 146t188 122l178 -94q-92 -59 -159 -125t-67 -150q0 -46 23 -72t79 -26q41 0 73 11t52 21l26 -190q-35 -21 -89.5 -40.5t-128.5 -19.5z" />
    <glyph glyph-name="uni012F" unicode="&#x12f;" horiz-adv-x="709" 
d="M195 0v1536h299v-1536h-299zM304 -591q-127 0 -210.5 67.5t-90.5 196.5q-5 76 24.5 153t100.5 146t188 122l178 -94q-91 -59 -158.5 -125t-67.5 -150q0 -46 23 -72t79 -26q41 0 73 11t53 21l25 -190q-34 -21 -89 -40.5t-128 -19.5zM346 1773q-78 0 -133.5 52.5
t-55.5 125.5q0 74 55.5 126.5t133.5 52.5t133.5 -52.5t55.5 -126.5q0 -73 -55.5 -125.5t-133.5 -52.5z" />
    <glyph glyph-name="uni0130" unicode="&#x130;" horiz-adv-x="759" 
d="M534 2048v-2048h-309v2048h309zM380 2285q-78 0 -133.5 52.5t-55.5 125.5q0 74 55.5 126.5t133.5 52.5t133.5 -52.5t55.5 -126.5q0 -73 -55.5 -125.5t-133.5 -52.5z" />
    <glyph glyph-name="uni0131" unicode="&#x131;" horiz-adv-x="701" 
d="M201 0v1536h299v-1536h-299z" />
    <glyph glyph-name="uni0132" unicode="&#x132;" horiz-adv-x="2313" 
d="M534 2048v-2048h-309v2048h309zM1780 2048h308v-1452q0 -197 -77.5 -337t-217.5 -213.5t-328 -73.5q-173 0 -310.5 63t-217 183.5t-79.5 293.5h307q0 -85 39.5 -147t109 -96.5t159.5 -34.5q98 0 166.5 41.5t104.5 122.5t36 198v1452z" />
    <glyph glyph-name="uni0133" unicode="&#x133;" horiz-adv-x="1402" 
d="M201 0v1536h299v-1536h-299zM352 1773q-78 0 -133.5 52.5t-55.5 125.5q0 74 55.5 126.5t133.5 52.5t133.5 -52.5t55.5 -126.5q0 -73 -55.5 -125.5t-133.5 -52.5zM902 1536h299v-1636q0 -154 -55.5 -260t-164 -161t-267.5 -55h-30.5t-30.5 1v257h24.5h23.5
q106 0 153.5 56.5t47.5 163.5v1634zM1050 1773q-78 0 -133.5 52.5t-55.5 125.5q0 74 55.5 126.5t133.5 52.5t133.5 -52.5t55.5 -126.5q0 -73 -55.5 -125.5t-133.5 -52.5z" />
    <glyph glyph-name="uni0134" unicode="&#x134;" horiz-adv-x="1554" 
d="M1021 2048h308v-1452q0 -197 -77.5 -337t-217.5 -213.5t-328 -73.5q-173 0 -310.5 63t-217 183.5t-79.5 293.5h307q0 -85 39.5 -147t109 -96.5t159.5 -34.5q98 0 166.5 41.5t104.5 122.5t36 198v1452zM1380 2232l-205 268l-206 -268h-270v15l351 424h249l352 -424v-15
h-271z" />
    <glyph glyph-name="uni0135" unicode="&#x135;" horiz-adv-x="701" 
d="M201 1536h299v-1636q0 -154 -55.5 -260t-164 -161t-267.5 -55h-30.5t-30.5 1v257h24.5h23.5q106 0 153.5 56.5t47.5 163.5v1634zM554 1720l-205 268l-206 -268h-270v15l351 424h249l352 -424v-15h-271z" />
    <glyph glyph-name="uni0136" unicode="&#x136;" horiz-adv-x="1871" 
d="M225 0v2048h309v-978h25l859 978h389l-826 -922l829 -1126h-372l-662 915l-242 -278v-637h-309zM672 -671l116 510h293l-187 -510h-222z" />
    <glyph glyph-name="uni0137" unicode="&#x137;" horiz-adv-x="1567" 
d="M476 521l-2 365h52l612 650h358l-698 -740h-47zM201 0v2048h299v-2048h-299zM1171 0l-550 730l206 209l711 -939h-367zM544 -672l116 510h293l-187 -510h-222z" />
    <glyph glyph-name="uni0138" unicode="&#x138;" horiz-adv-x="1814" 
d="M552 1536v-1536h-325v1536h325zM1590 1536l-743 -908h-381l-46 291h272l498 617h400zM1175 0l-517 651l235 202l693 -853h-411z" />
    <glyph glyph-name="uni0139" unicode="&#x139;" horiz-adv-x="1589" 
d="M225 0v2048h309v-1782h928v-266h-1237zM255 2253l234 461h315l-310 -461h-239z" />
    <glyph glyph-name="uni013A" unicode="&#x13a;" horiz-adv-x="701" 
d="M500 2048v-2048h-299v2048h299zM225 2253l234 461h315l-310 -461h-239z" />
    <glyph glyph-name="uni013B" unicode="&#x13b;" horiz-adv-x="1589" 
d="M225 0v2048h309v-1782h928v-266h-1237zM581 -672l116 510h293l-187 -510h-222z" />
    <glyph glyph-name="uni013C" unicode="&#x13c;" horiz-adv-x="701" 
d="M500 2048v-2048h-299v2048h299zM88 -672l116 510h293l-187 -510h-222z" />
    <glyph glyph-name="uni013D" unicode="&#x13d;" horiz-adv-x="1589" 
d="M225 0v2048h309v-1782h928v-266h-1237zM868 1626v521h268l-70 -521h-198z" />
    <glyph glyph-name="uni013E" unicode="&#x13e;" horiz-adv-x="925" 
d="M500 2048v-2048h-299v2048h299zM688 1626v521h268l-70 -521h-198z" />
    <glyph glyph-name="uni013F" unicode="&#x13f;" horiz-adv-x="1600" 
d="M227 0v2048h309v-1782h928v-266h-1237zM994 1017q-78 0 -133.5 52.5t-55.5 125.5q0 74 55.5 126.5t133.5 52.5t133.5 -52.5t55.5 -126.5q0 -73 -55.5 -125.5t-133.5 -52.5z" />
    <glyph glyph-name="uni0140" unicode="&#x140;" horiz-adv-x="978" 
d="M503 2048v-2048h-299v2048h299zM819 959q-78 0 -133.5 52.5t-55.5 125.5q0 74 55.5 126.5t133.5 52.5t133.5 -52.5t55.5 -126.5q0 -73 -55.5 -125.5t-133.5 -52.5z" />
    <glyph glyph-name="uni0141" unicode="&#x141;" horiz-adv-x="1606" 
d="M904 1294v-199l-850 -256v199zM254 0v2048h309v-1782h927v-266h-1236z" />
    <glyph glyph-name="uni0142" unicode="&#x142;" horiz-adv-x="701" 
d="M710 1298v-196l-720 -257v196zM500 2048v-2048h-299v2048h299z" />
    <glyph glyph-name="uni0143" unicode="&#x143;" horiz-adv-x="2103" 
d="M1878 2048v-2048h-284l-1041 1502h-19v-1502h-309v2048h286l1042 -1504h19v1504h306zM929 2253l234 461h315l-310 -461h-239z" />
    <glyph glyph-name="uni0144" unicode="&#x144;" horiz-adv-x="1682" 
d="M500 912v-912h-299v1536h287v-250h19q53 122 166.5 196t286.5 74q157 0 275 -65.5t183 -194.5t65 -319v-977h-299v941q0 167 -87 261.5t-239 94.5q-104 0 -184.5 -45t-127 -131.5t-46.5 -208.5zM718 1741l234 461h315l-310 -461h-239z" />
    <glyph glyph-name="uni0145" unicode="&#x145;" horiz-adv-x="2103" 
d="M1878 2048v-2048h-284l-1041 1502h-19v-1502h-309v2048h286l1042 -1504h19v1504h306zM790 -672l116 510h293l-187 -510h-222z" />
    <glyph glyph-name="uni0146" unicode="&#x146;" horiz-adv-x="1682" 
d="M500 912v-912h-299v1536h287v-250h19q53 122 166.5 196t286.5 74q157 0 275 -65.5t183 -194.5t65 -319v-977h-299v941q0 167 -87 261.5t-239 94.5q-104 0 -184.5 -45t-127 -131.5t-46.5 -208.5zM580 -672l116 510h293l-187 -510h-222z" />
    <glyph glyph-name="uni0147" unicode="&#x147;" horiz-adv-x="2103" 
d="M1878 2048v-2048h-284l-1041 1502h-19v-1502h-309v2048h286l1042 -1504h19v1504h306zM846 2671l206 -268l205 268h271v-15l-352 -424h-249l-351 424v15h270z" />
    <glyph glyph-name="uni0148" unicode="&#x148;" horiz-adv-x="1682" 
d="M500 912v-912h-299v1536h287v-250h19q53 122 166.5 196t286.5 74q157 0 275 -65.5t183 -194.5t65 -319v-977h-299v941q0 167 -87 261.5t-239 94.5q-104 0 -184.5 -45t-127 -131.5t-46.5 -208.5zM636 2159l206 -268l205 268h271v-15l-352 -424h-249l-351 424v15h270z" />
    <glyph glyph-name="uni014A" unicode="&#x14a;" horiz-adv-x="2103" 
d="M1594 0h284v-137q0 -153 -62 -252.5t-168.5 -148t-241.5 -48.5q-37 0 -75 2.5t-68 12.5v243q20 -4 46.5 -7t53.5 -3q99 0 165 44.5t66 157.5v136zM1878 2048v-2048h-284l-1041 1502h-19v-1502h-309v2048h286l1042 -1504h19v1504h306z" />
    <glyph glyph-name="uni014B" unicode="&#x14b;" horiz-adv-x="1691" 
d="M1184 6h299v-137q0 -145 -58.5 -244t-160 -150t-230.5 -51q-43 0 -85 2t-78 12l10 248q19 -4 42.5 -7t50.5 -3q92 0 151 42t59 151v137zM500 912v-912h-299v1536h287v-250h19q53 122 166.5 196t286.5 74q157 0 275 -65.5t183 -194.5t65 -319v-977h-299v941
q0 167 -87 261.5t-239 94.5q-104 0 -184.5 -45t-127 -131.5t-46.5 -208.5z" />
    <glyph glyph-name="uni014C" unicode="&#x14c;" horiz-adv-x="2163" 
d="M2004 1024q0 -328 -120 -563.5t-328.5 -362t-473.5 -126.5q-266 0 -474.5 126.5t-328.5 362.5t-120 563q0 328 120 563.5t328.5 362t474.5 126.5q265 0 473.5 -126.5t328.5 -362t120 -563.5zM1698 1024q0 250 -80.5 421.5t-220 260t-315.5 88.5q-177 0 -316 -88.5
t-219.5 -260t-80.5 -421.5t80.5 -421.5t219.5 -260t316 -88.5q176 0 315.5 88.5t220 260t80.5 421.5zM1556 2560v-210h-949v210h949z" />
    <glyph glyph-name="uni014D" unicode="&#x14d;" horiz-adv-x="1696" 
d="M848 -31q-216 0 -377 99t-250 277t-89 416q0 239 89 418t250 278t377 99t377 -99t250 -278t89 -418q0 -238 -89 -416t-250 -277t-377 -99zM849 220q140 0 232 74t136.5 197t44.5 271q0 147 -44.5 270.5t-136.5 198.5t-232 75q-141 0 -233.5 -75t-137 -198.5t-44.5 -270.5
q0 -148 44.5 -271t137 -197t233.5 -74zM1323 2048v-210h-949v210h949z" />
    <glyph glyph-name="uni014E" unicode="&#x14e;" horiz-adv-x="2163" 
d="M2004 1024q0 -328 -120 -563.5t-328.5 -362t-473.5 -126.5q-266 0 -474.5 126.5t-328.5 362.5t-120 563q0 328 120 563.5t328.5 362t474.5 126.5q265 0 473.5 -126.5t328.5 -362t120 -563.5zM1698 1024q0 250 -80.5 421.5t-220 260t-315.5 88.5q-177 0 -316 -88.5
t-219.5 -260t-80.5 -421.5t80.5 -421.5t219.5 -260t316 -88.5q176 0 315.5 88.5t220 260t80.5 421.5zM1278 2568h246q0 -169 -119.5 -274.5t-322.5 -105.5q-202 0 -321 105.5t-119 274.5h245q0 -75 44 -132.5t151 -57.5q105 0 150.5 57t45.5 133z" />
    <glyph glyph-name="uni014F" unicode="&#x14f;" horiz-adv-x="1696" 
d="M848 -31q-216 0 -377 99t-250 277t-89 416q0 239 89 418t250 278t377 99t377 -99t250 -278t89 -418q0 -238 -89 -416t-250 -277t-377 -99zM849 220q140 0 232 74t136.5 197t44.5 271q0 147 -44.5 270.5t-136.5 198.5t-232 75q-141 0 -233.5 -75t-137 -198.5t-44.5 -270.5
q0 -148 44.5 -271t137 -197t233.5 -74zM1044 2056h246q0 -169 -119.5 -274.5t-322.5 -105.5q-202 0 -321 105.5t-119 274.5h245q0 -75 44 -132.5t151 -57.5q105 0 150.5 57t45.5 133z" />
    <glyph glyph-name="uni0150" unicode="&#x150;" horiz-adv-x="2163" 
d="M2004 1024q0 -328 -120 -563.5t-328.5 -362t-473.5 -126.5q-266 0 -474.5 126.5t-328.5 362.5t-120 563q0 328 120 563.5t328.5 362t474.5 126.5q265 0 473.5 -126.5t328.5 -362t120 -563.5zM1698 1024q0 250 -80.5 421.5t-220 260t-315.5 88.5q-177 0 -316 -88.5
t-219.5 -260t-80.5 -421.5t80.5 -421.5t219.5 -260t316 -88.5q176 0 315.5 88.5t220 260t80.5 421.5zM1146 2219l311 421h296l-368 -421h-239zM701 2219l238 421h293l-307 -421h-224z" />
    <glyph glyph-name="uni0151" unicode="&#x151;" horiz-adv-x="1696" 
d="M848 -31q-216 0 -377 99t-250 277t-89 416q0 239 89 418t250 278t377 99t377 -99t250 -278t89 -418q0 -238 -89 -416t-250 -277t-377 -99zM849 220q140 0 232 74t136.5 197t44.5 271q0 147 -44.5 270.5t-136.5 198.5t-232 75q-141 0 -233.5 -75t-137 -198.5t-44.5 -270.5
q0 -148 44.5 -271t137 -197t233.5 -74zM913 1707l311 421h296l-368 -421h-239zM468 1707l238 421h293l-307 -421h-224z" />
    <glyph glyph-name="uni0152" unicode="&#x152;" horiz-adv-x="2745" 
d="M1072 0q-269 0 -475 125t-322 354.5t-116 543.5q0 317 116 547t322 354t475 124h1484v-266h-974v-624h908v-265h-908v-627h986v-266h-1496zM1272 266v1516h-200q-180 0 -317 -90t-214 -260t-77 -409q0 -237 77 -406.5t214 -260t317 -90.5h200z" />
    <glyph glyph-name="uni0153" unicode="&#x153;" horiz-adv-x="2775" 
d="M850 -31q-216 0 -377 99t-250 277t-89 416q0 239 89 418t250 278t377 99t377 -99t250 -278t89 -418q0 -238 -89 -416t-250 -277t-377 -99zM851 220q140 0 232 74t136.5 197t44.5 271q0 147 -44.5 270.5t-136.5 198.5t-232 75q-141 0 -233.5 -75t-137 -198.5t-44.5 -270.5
q0 -148 44.5 -271t137 -197t233.5 -74zM2002 -31q-227 0 -390.5 97.5t-252 275t-88.5 416.5q0 236 88.5 416t248 281t373.5 101q130 0 252 -43t219 -135t153 -238.5t56 -355.5v-106h-1221v224h928q0 118 -48 209.5t-134.5 144.5t-202.5 53q-126 0 -219.5 -61.5t-144 -160
t-50.5 -213.5v-175q0 -154 54.5 -262t152.5 -164.5t229 -56.5q85 0 155 24.5t121 73.5t78 121l283 -51q-34 -125 -121.5 -218.5t-219 -145t-299.5 -51.5z" />
    <glyph glyph-name="uni0154" unicode="&#x154;" horiz-adv-x="1816" 
d="M225 0v2048h730q238 0 395.5 -82t235.5 -226.5t78 -333.5q0 -188 -78.5 -330.5t-236 -221.5t-395.5 -79h-553v266h525q150 0 244.5 43t138.5 125t44 197q0 116 -44.5 201t-139 130.5t-247.5 45.5h-388v-1783h-309zM1236 924l506 -924h-352l-496 924h342zM773 2253
l234 461h315l-310 -461h-239z" />
    <glyph glyph-name="uni0155" unicode="&#x155;" horiz-adv-x="1082" 
d="M201 0v1536h289v-244h16q42 124 148.5 195.5t241.5 71.5q28 0 66.5 -2t60.5 -5v-286q-18 5 -64 11.5t-92 6.5q-106 0 -188.5 -44.5t-130.5 -123t-48 -178.5v-938h-299zM473 1741l234 461h315l-310 -461h-239z" />
    <glyph glyph-name="uni0156" unicode="&#x156;" horiz-adv-x="1816" 
d="M225 0v2048h730q238 0 395.5 -82t235.5 -226.5t78 -333.5q0 -188 -78.5 -330.5t-236 -221.5t-395.5 -79h-553v266h525q150 0 244.5 43t138.5 125t44 197q0 116 -44.5 201t-139 130.5t-247.5 45.5h-388v-1783h-309zM1236 924l506 -924h-352l-496 924h342zM669 -672
l116 510h293l-187 -510h-222z" />
    <glyph glyph-name="uni0157" unicode="&#x157;" horiz-adv-x="1082" 
d="M201 0v1536h289v-244h16q42 124 148.5 195.5t241.5 71.5q28 0 66.5 -2t60.5 -5v-286q-18 5 -64 11.5t-92 6.5q-106 0 -188.5 -44.5t-130.5 -123t-48 -178.5v-938h-299zM88 -672l116 510h293l-187 -510h-222z" />
    <glyph glyph-name="uni0158" unicode="&#x158;" horiz-adv-x="1816" 
d="M225 0v2048h730q238 0 395.5 -82t235.5 -226.5t78 -333.5q0 -188 -78.5 -330.5t-236 -221.5t-395.5 -79h-553v266h525q150 0 244.5 43t138.5 125t44 197q0 116 -44.5 201t-139 130.5t-247.5 45.5h-388v-1783h-309zM1236 924l506 -924h-352l-496 924h342zM690 2671
l206 -268l205 268h271v-15l-352 -424h-249l-351 424v15h270z" />
    <glyph glyph-name="uni0159" unicode="&#x159;" horiz-adv-x="1082" 
d="M201 0v1536h289v-244h16q42 124 148.5 195.5t241.5 71.5q28 0 66.5 -2t60.5 -5v-286q-18 5 -64 11.5t-92 6.5q-106 0 -188.5 -44.5t-130.5 -123t-48 -178.5v-938h-299zM391 2159l206 -268l205 268h271v-15l-352 -424h-249l-351 424v15h270z" />
    <glyph glyph-name="uni015A" unicode="&#x15a;" horiz-adv-x="1812" 
d="M1342 1510q-16 142 -132 220.5t-292 78.5q-126 0 -218 -39.5t-142.5 -108t-50.5 -155.5q0 -73 34.5 -126t91 -88.5t121.5 -59t125 -38.5l200 -52q98 -24 201 -65t191 -108t142.5 -166t54.5 -237q0 -174 -89.5 -309t-259 -213t-409.5 -78q-230 0 -398 73t-263 207.5
t-105 319.5h310q9 -111 72.5 -184.5t163 -109t218.5 -35.5q131 0 233.5 41.5t161.5 116t59 174.5q0 91 -51.5 149t-139 96t-197.5 67l-242 66q-246 67 -389.5 197t-143.5 344q0 177 96 309t260 205.5t370 73.5q208 0 367.5 -73t251.5 -200.5t96 -292.5h-298zM781 2253
l234 461h315l-310 -461h-239z" />
    <glyph glyph-name="uni015B" unicode="&#x15b;" horiz-adv-x="1509" 
d="M1352 1161l-271 -48q-17 52 -53.5 99t-98.5 77t-155 30q-127 0 -212 -56.5t-85 -145.5q0 -77 57 -124t184 -77l244 -56q212 -49 316 -151t104 -265q0 -138 -79.5 -245.5t-221 -168.5t-327.5 -61q-258 0 -421 110.5t-200 314.5l289 44q27 -113 111 -170.5t219 -57.5
q147 0 235 61.5t88 150.5q0 72 -53.5 121t-163.5 74l-260 57q-215 49 -317.5 156t-102.5 271q0 136 76 238t210 159.5t307 57.5q249 0 392 -107.5t189 -287.5zM651 1741l234 461h315l-310 -461h-239z" />
    <glyph glyph-name="uni015C" unicode="&#x15c;" horiz-adv-x="1812" 
d="M1342 1510q-16 142 -132 220.5t-292 78.5q-126 0 -218 -39.5t-142.5 -108t-50.5 -155.5q0 -73 34.5 -126t91 -88.5t121.5 -59t125 -38.5l200 -52q98 -24 201 -65t191 -108t142.5 -166t54.5 -237q0 -174 -89.5 -309t-259 -213t-409.5 -78q-230 0 -398 73t-263 207.5
t-105 319.5h310q9 -111 72.5 -184.5t163 -109t218.5 -35.5q131 0 233.5 41.5t161.5 116t59 174.5q0 91 -51.5 149t-139 96t-197.5 67l-242 66q-246 67 -389.5 197t-143.5 344q0 177 96 309t260 205.5t370 73.5q208 0 367.5 -73t251.5 -200.5t96 -292.5h-298zM1110 2232
l-205 268l-206 -268h-270v15l351 424h249l352 -424v-15h-271z" />
    <glyph glyph-name="uni015D" unicode="&#x15d;" horiz-adv-x="1509" 
d="M1352 1161l-271 -48q-17 52 -53.5 99t-98.5 77t-155 30q-127 0 -212 -56.5t-85 -145.5q0 -77 57 -124t184 -77l244 -56q212 -49 316 -151t104 -265q0 -138 -79.5 -245.5t-221 -168.5t-327.5 -61q-258 0 -421 110.5t-200 314.5l289 44q27 -113 111 -170.5t219 -57.5
q147 0 235 61.5t88 150.5q0 72 -53.5 121t-163.5 74l-260 57q-215 49 -317.5 156t-102.5 271q0 136 76 238t210 159.5t307 57.5q249 0 392 -107.5t189 -287.5zM980 1720l-205 268l-206 -268h-270v15l351 424h249l352 -424v-15h-271z" />
    <glyph glyph-name="uni015E" unicode="&#x15e;" horiz-adv-x="1812" 
d="M1342 1510q-16 142 -132 220.5t-292 78.5q-126 0 -218 -39.5t-142.5 -108t-50.5 -155.5q0 -73 34.5 -126t91 -88.5t121.5 -59t125 -38.5l200 -52q98 -24 201 -65t191 -108t142.5 -166t54.5 -237q0 -174 -89.5 -309t-259 -213t-409.5 -78q-230 0 -398 73t-263 207.5
t-105 319.5h310q9 -111 72.5 -184.5t163 -109t218.5 -35.5q131 0 233.5 41.5t161.5 116t59 174.5q0 91 -51.5 149t-139 96t-197.5 67l-242 66q-246 67 -389.5 197t-143.5 344q0 177 96 309t260 205.5t370 73.5q208 0 367.5 -73t251.5 -200.5t96 -292.5h-298zM806 8h196
l-16 -82q87 -14 152 -70t65 -169q1 -135 -116.5 -219t-339.5 -84l-6 167q104 0 168.5 30t65.5 97t-49.5 94t-160.5 38z" />
    <glyph glyph-name="uni015F" unicode="&#x15f;" horiz-adv-x="1509" 
d="M1352 1161l-271 -48q-17 52 -53.5 99t-98.5 77t-155 30q-127 0 -212 -56.5t-85 -145.5q0 -77 57 -124t184 -77l244 -56q212 -49 316 -151t104 -265q0 -138 -79.5 -245.5t-221 -168.5t-327.5 -61q-258 0 -421 110.5t-200 314.5l289 44q27 -113 111 -170.5t219 -57.5
q147 0 235 61.5t88 150.5q0 72 -53.5 121t-163.5 74l-260 57q-215 49 -317.5 156t-102.5 271q0 136 76 238t210 159.5t307 57.5q249 0 392 -107.5t189 -287.5zM664 8h196l-16 -82q87 -14 152 -70t65 -169q1 -135 -116.5 -219t-339.5 -84l-6 167q104 0 168.5 30t65.5 97
t-49.5 94t-160.5 38z" />
    <glyph glyph-name="uni0160" unicode="&#x160;" horiz-adv-x="1812" 
d="M1342 1510q-16 142 -132 220.5t-292 78.5q-126 0 -218 -39.5t-142.5 -108t-50.5 -155.5q0 -73 34.5 -126t91 -88.5t121.5 -59t125 -38.5l200 -52q98 -24 201 -65t191 -108t142.5 -166t54.5 -237q0 -174 -89.5 -309t-259 -213t-409.5 -78q-230 0 -398 73t-263 207.5
t-105 319.5h310q9 -111 72.5 -184.5t163 -109t218.5 -35.5q131 0 233.5 41.5t161.5 116t59 174.5q0 91 -51.5 149t-139 96t-197.5 67l-242 66q-246 67 -389.5 197t-143.5 344q0 177 96 309t260 205.5t370 73.5q208 0 367.5 -73t251.5 -200.5t96 -292.5h-298zM699 2671
l206 -268l205 268h271v-15l-352 -424h-249l-351 424v15h270z" />
    <glyph glyph-name="uni0161" unicode="&#x161;" horiz-adv-x="1509" 
d="M1352 1161l-271 -48q-17 52 -53.5 99t-98.5 77t-155 30q-127 0 -212 -56.5t-85 -145.5q0 -77 57 -124t184 -77l244 -56q212 -49 316 -151t104 -265q0 -138 -79.5 -245.5t-221 -168.5t-327.5 -61q-258 0 -421 110.5t-200 314.5l289 44q27 -113 111 -170.5t219 -57.5
q147 0 235 61.5t88 150.5q0 72 -53.5 121t-163.5 74l-260 57q-215 49 -317.5 156t-102.5 271q0 136 76 238t210 159.5t307 57.5q249 0 392 -107.5t189 -287.5zM569 2159l206 -268l205 268h271v-15l-352 -424h-249l-351 424v15h270z" />
    <glyph glyph-name="uni0162" unicode="&#x162;" horiz-adv-x="1833" 
d="M124 1782v266h1585v-266h-639v-1782h-308v1782h-638zM837 8h196l-16 -82q87 -14 152 -70t65 -169q1 -135 -116.5 -219t-339.5 -84l-6 167q104 0 168.5 30t65.5 97t-49.5 94t-160.5 38z" />
    <glyph glyph-name="uni0163" unicode="&#x163;" horiz-adv-x="1047" 
d="M918 1536v-240h-839v240h839zM304 1904h299v-1453q0 -87 26 -130.5t67.5 -59t90.5 -15.5q36 0 63 5t42 8l54 -247q-26 -10 -74 -20.5t-120 -11.5q-118 -2 -220 42t-165 136t-63 231v1515zM604 8h196l-16 -82q87 -14 152 -70t65 -169q1 -135 -116.5 -219t-339.5 -84
l-6 167q104 0 168.5 30t65.5 97t-49.5 94t-160.5 38z" />
    <glyph glyph-name="uni0164" unicode="&#x164;" horiz-adv-x="1833" 
d="M124 1782v266h1585v-266h-639v-1782h-308v1782h-638zM711 2671l206 -268l205 268h271v-15l-352 -424h-249l-351 424v15h270z" />
    <glyph glyph-name="uni0165" unicode="&#x165;" horiz-adv-x="1081" 
d="M918 1536v-240h-839v240h839zM304 1904h299v-1453q0 -87 26 -130.5t67.5 -59t90.5 -15.5q36 0 63 5t42 8l54 -247q-26 -10 -74 -20.5t-120 -11.5q-118 -2 -220 42t-165 136t-63 231v1515zM774 1726v521h268l-70 -521h-198z" />
    <glyph glyph-name="uni0166" unicode="&#x166;" horiz-adv-x="1833" 
d="M124 1782v266h1585v-266h-639v-1782h-308v1782h-638zM456 927v207h919v-207h-919z" />
    <glyph glyph-name="uni0167" unicode="&#x167;" horiz-adv-x="1047" 
d="M79 817v190h839v-190h-839zM918 1536v-240h-839v240h839zM304 1904h299v-1453q0 -87 26 -130.5t67.5 -59t90.5 -15.5q36 0 63 5t42 8l54 -247q-26 -10 -74 -20.5t-120 -11.5q-118 -2 -220 42t-165 136t-63 231v1515z" />
    <glyph glyph-name="uni0168" unicode="&#x168;" horiz-adv-x="2077" 
d="M1542 2048h310v-1347q0 -215 -101 -380.5t-284 -260t-429 -94.5q-245 0 -428 94.5t-284 260t-101 380.5v1347h309v-1322q0 -139 61.5 -247t174.5 -169.5t268 -61.5q156 0 269.5 61.5t174 169.5t60.5 247v1322zM737 2234l-201 6q0 166 89.5 265t221.5 99q61 0 107 -20.5
t86.5 -47t81 -47t90.5 -20.5q58 0 94.5 44t36.5 109l197 -13q0 -167 -90 -262.5t-221 -96.5q-71 0 -117.5 20.5t-82.5 47t-74 47.5t-91 21q-56 0 -91.5 -43.5t-35.5 -108.5z" />
    <glyph glyph-name="uni0169" unicode="&#x169;" horiz-adv-x="1674" 
d="M1174 637v899h300v-1536h-294v266h-16q-53 -123 -169.5 -204.5t-289.5 -81.5q-148 0 -261.5 65.5t-178 194.5t-64.5 319v977h299v-941q0 -157 87 -250t226 -93q84 0 167.5 42t139 127t54.5 216zM538 1722l-201 6q0 166 89.5 265t221.5 99q61 0 107 -20.5t86.5 -47t81 -47
t90.5 -20.5q58 0 94.5 44t36.5 109l197 -13q0 -167 -90 -262.5t-221 -96.5q-71 0 -117.5 20.5t-82.5 47t-74 47.5t-91 21q-56 0 -91.5 -43.5t-35.5 -108.5z" />
    <glyph glyph-name="uni016A" unicode="&#x16a;" horiz-adv-x="2077" 
d="M1542 2048h310v-1347q0 -215 -101 -380.5t-284 -260t-429 -94.5q-245 0 -428 94.5t-284 260t-101 380.5v1347h309v-1322q0 -139 61.5 -247t174.5 -169.5t268 -61.5q156 0 269.5 61.5t174 169.5t60.5 247v1322zM1513 2560v-210h-949v210h949z" />
    <glyph glyph-name="uni016B" unicode="&#x16b;" horiz-adv-x="1674" 
d="M1174 637v899h300v-1536h-294v266h-16q-53 -123 -169.5 -204.5t-289.5 -81.5q-148 0 -261.5 65.5t-178 194.5t-64.5 319v977h299v-941q0 -157 87 -250t226 -93q84 0 167.5 42t139 127t54.5 216zM1314 2048v-210h-949v210h949z" />
    <glyph glyph-name="uni016C" unicode="&#x16c;" horiz-adv-x="2077" 
d="M1542 2048h310v-1347q0 -215 -101 -380.5t-284 -260t-429 -94.5q-245 0 -428 94.5t-284 260t-101 380.5v1347h309v-1322q0 -139 61.5 -247t174.5 -169.5t268 -61.5q156 0 269.5 61.5t174 169.5t60.5 247v1322zM1235 2568h246q0 -169 -119.5 -274.5t-322.5 -105.5
q-202 0 -321 105.5t-119 274.5h245q0 -75 44 -132.5t151 -57.5q105 0 150.5 57t45.5 133z" />
    <glyph glyph-name="uni016D" unicode="&#x16d;" horiz-adv-x="1674" 
d="M1174 637v899h300v-1536h-294v266h-16q-53 -123 -169.5 -204.5t-289.5 -81.5q-148 0 -261.5 65.5t-178 194.5t-64.5 319v977h299v-941q0 -157 87 -250t226 -93q84 0 167.5 42t139 127t54.5 216zM1036 2056h246q0 -169 -119.5 -274.5t-322.5 -105.5q-202 0 -321 105.5
t-119 274.5h245q0 -75 44 -132.5t151 -57.5q105 0 150.5 57t45.5 133z" />
    <glyph glyph-name="uni016E" unicode="&#x16e;" horiz-adv-x="2077" 
d="M1542 2048h310v-1347q0 -215 -101 -380.5t-284 -260t-429 -94.5q-245 0 -428 94.5t-284 260t-101 380.5v1347h309v-1322q0 -139 61.5 -247t174.5 -169.5t268 -61.5q156 0 269.5 61.5t174 169.5t60.5 247v1322zM1039 2181q-123 0 -209.5 86t-86.5 207q0 81 39.5 148
t107 106.5t149.5 39.5q81 0 148.5 -39.5t107.5 -106.5t40 -148t-40 -147.5t-107.5 -106t-148.5 -39.5zM1039 2334q60 0 100 41t40 99q0 59 -40 100t-100 41t-100.5 -41t-40.5 -100q0 -58 40 -99.5t101 -40.5z" />
    <glyph glyph-name="uni016F" unicode="&#x16f;" horiz-adv-x="1674" 
d="M1174 637v899h300v-1536h-294v266h-16q-53 -123 -169.5 -204.5t-289.5 -81.5q-148 0 -261.5 65.5t-178 194.5t-64.5 319v977h299v-941q0 -157 87 -250t226 -93q84 0 167.5 42t139 127t54.5 216zM840 1706q-100 0 -181 44.5t-128.5 120.5t-47.5 171q0 94 47.5 172.5
t128.5 125.5t181 47q99 0 179 -47t127 -125.5t47 -172.5q0 -95 -47 -171t-127 -120.5t-179 -44.5zM840 1866q78 1 129 54.5t51 121.5q0 70 -51 125.5t-129 55.5q-79 0 -129.5 -55.5t-50.5 -125.5q0 -68 50.5 -122t129.5 -54z" />
    <glyph glyph-name="uni0170" unicode="&#x170;" horiz-adv-x="2077" 
d="M1542 2048h310v-1347q0 -215 -101 -380.5t-284 -260t-429 -94.5q-245 0 -428 94.5t-284 260t-101 380.5v1347h309v-1322q0 -139 61.5 -247t174.5 -169.5t268 -61.5q156 0 269.5 61.5t174 169.5t60.5 247v1322zM1103 2219l311 421h296l-368 -421h-239zM658 2219l238 421
h293l-307 -421h-224z" />
    <glyph glyph-name="uni0171" unicode="&#x171;" horiz-adv-x="1674" 
d="M1174 637v899h300v-1536h-294v266h-16q-53 -123 -169.5 -204.5t-289.5 -81.5q-148 0 -261.5 65.5t-178 194.5t-64.5 319v977h299v-941q0 -157 87 -250t226 -93q84 0 167.5 42t139 127t54.5 216zM904 1707l311 421h296l-368 -421h-239zM459 1707l238 421h293l-307 -421
h-224z" />
    <glyph glyph-name="uni0172" unicode="&#x172;" horiz-adv-x="2077" 
d="M1542 2048h310v-1347q0 -215 -101 -380.5t-284 -260t-429 -94.5q-245 0 -428 94.5t-284 260t-101 380.5v1347h309v-1322q0 -139 61.5 -247t174.5 -169.5t268 -61.5q156 0 269.5 61.5t174 169.5t60.5 247v1322zM1065 -588q-126 0 -209.5 67.5t-91.5 196.5q-5 76 25 153
t101 146t188 122l178 -94q-92 -59 -159 -125t-67 -150q0 -46 23 -72t79 -26q41 0 73 11t52 21l26 -190q-35 -21 -89.5 -40.5t-128.5 -19.5z" />
    <glyph glyph-name="uni0173" unicode="&#x173;" horiz-adv-x="1674" 
d="M1174 637v899h300v-1536h-294v266h-16q-53 -123 -169.5 -204.5t-289.5 -81.5q-148 0 -261.5 65.5t-178 194.5t-64.5 319v977h299v-941q0 -157 87 -250t226 -93q84 0 167.5 42t139 127t54.5 216zM1283 -591q-126 0 -209.5 67.5t-91.5 196.5q-5 76 25 153t101 146t188 122
l178 -94q-92 -59 -159 -125t-67 -150q0 -46 23 -72t79 -26q41 0 73 11t52 21l26 -190q-35 -21 -89.5 -40.5t-128.5 -19.5z" />
    <glyph glyph-name="uni0174" unicode="&#x174;" horiz-adv-x="2754" 
d="M626 0l-568 2048h325l399 -1586h19l415 1586h322l415 -1587h19l398 1587h326l-569 -2048h-311l-431 1534h-16l-431 -1534h-312zM1582 2232l-205 268l-206 -268h-270v15l351 424h249l352 -424v-15h-271z" />
    <glyph glyph-name="uni0175" unicode="&#x175;" horiz-adv-x="2323" 
d="M534 0l-452 1536h309l301 -1128h15l302 1128h309l300 -1123h15l299 1123h309l-451 -1536h-305l-312 1109h-23l-312 -1109h-304zM1367 1720l-205 268l-206 -268h-270v15l351 424h249l352 -424v-15h-271z" />
    <glyph glyph-name="uni0176" unicode="&#x176;" horiz-adv-x="1928" 
d="M67 2048h351l535 -931h22l535 931h351l-743 -1244v-804h-308v804zM1169 2232l-205 268l-206 -268h-270v15l351 424h249l352 -424v-15h-271z" />
    <glyph glyph-name="uni0177" unicode="&#x177;" horiz-adv-x="1595" 
d="M390 -576q-67 0 -122 10.5t-82 22.5l72 245q82 -22 146 -19t113.5 48t87.5 147l37 102l-562 1556h320l389 -1192h16l389 1192h321l-633 -1741q-44 -120 -112 -203.5t-162 -125.5t-218 -42zM1002 1720l-205 268l-206 -268h-270v15l351 424h249l352 -424v-15h-271z" />
    <glyph glyph-name="uni0178" unicode="&#x178;" horiz-adv-x="1928" 
d="M67 2048h351l535 -931h22l535 931h351l-743 -1244v-804h-308v804zM670 2289q-70 0 -123 52.5t-53 121.5q0 75 53 125t123 50q75 0 125.5 -50t50.5 -125q0 -69 -50.5 -121.5t-125.5 -52.5zM1258 2289q-70 0 -123 52.5t-53 121.5q0 75 53 125t123 50q75 0 125.5 -50
t50.5 -125q0 -69 -50.5 -121.5t-125.5 -52.5z" />
    <glyph glyph-name="uni0179" unicode="&#x179;" horiz-adv-x="1799" 
d="M172 0v206l1077 1576h-1086v266h1464v-206l-1077 -1576h1086v-266h-1464zM777 2253l234 461h315l-310 -461h-239z" />
    <glyph glyph-name="uni017A" unicode="&#x17a;" horiz-adv-x="1553" 
d="M169 0v205l832 1057v14h-805v260h1178v-218l-800 -1044v-14h828v-260h-1233zM651 1741l234 461h315l-310 -461h-239z" />
    <glyph glyph-name="uni017B" unicode="&#x17b;" horiz-adv-x="1799" 
d="M172 0v206l1077 1576h-1086v266h1464v-206l-1077 -1576h1086v-266h-1464zM901 2285q-78 0 -133.5 52.5t-55.5 125.5q0 74 55.5 126.5t133.5 52.5t133.5 -52.5t55.5 -126.5q0 -73 -55.5 -125.5t-133.5 -52.5z" />
    <glyph glyph-name="uni017C" unicode="&#x17c;" horiz-adv-x="1553" 
d="M169 0v205l832 1057v14h-805v260h1178v-218l-800 -1044v-14h828v-260h-1233zM775 1773q-78 0 -133.5 52.5t-55.5 125.5q0 74 55.5 126.5t133.5 52.5t133.5 -52.5t55.5 -126.5q0 -73 -55.5 -125.5t-133.5 -52.5z" />
    <glyph glyph-name="uni017D" unicode="&#x17d;" horiz-adv-x="1799" 
d="M172 0v206l1077 1576h-1086v266h1464v-206l-1077 -1576h1086v-266h-1464zM695 2671l206 -268l205 268h271v-15l-352 -424h-249l-351 424v15h270z" />
    <glyph glyph-name="uni017E" unicode="&#x17e;" horiz-adv-x="1553" 
d="M169 0v205l832 1057v14h-805v260h1178v-218l-800 -1044v-14h828v-260h-1233zM569 2159l205 -268l206 268h270v-15l-351 -424h-249l-352 424v15h271z" />
    <glyph glyph-name="uni017F" unicode="&#x17f;" horiz-adv-x="773" 
d="M354 0h-324v1633q0 165 60.5 278.5t174.5 172t273 58.5q50 0 102 -8t103 -20l-32 -243q-26 6 -56 9t-69 3q-114 0 -173 -65.5t-59 -184.5v-1633z" />
    <glyph glyph-name="uni0180" unicode="&#x180;" horiz-adv-x="1762" 
d="M225 0v2048h299v-761h18q26 48 75 111t136 110.5t230 47.5q186 0 332 -94t229.5 -271t83.5 -426t-83 -426.5t-228 -273t-331 -95.5q-140 0 -228.5 47t-138.5 110t-77 112h-25v-239h-292zM518 768q0 -162 47 -284t136 -190.5t218 -68.5q134 0 224 71.5t136.5 194.5
t46.5 277q0 152 -45.5 273t-136 191t-225.5 70q-130 0 -219.5 -67t-135.5 -187t-46 -280zM-85 1659v207h919v-207h-919z" />
    <glyph glyph-name="uni0181" unicode="&#x181;" horiz-adv-x="2320" 
d="M824 1783h-230q-81 0 -121 -36.5t-53 -93.5t-13 -120v-91h-283v158q0 128 55 229.5t159.5 160t252.5 58.5h233v-265zM703 0v2048h751q218 0 361 -71.5t213.5 -193t70.5 -273.5q0 -128 -47 -215.5t-125 -140t-173 -76.5v-20q102 -5 199.5 -65.5t161.5 -171.5t64 -270
q0 -157 -73.5 -281.5t-226.5 -197t-391 -72.5h-785zM1013 265h445q223 0 319 86t96 215q0 97 -49 178t-139.5 129t-214.5 48h-457v-656zM1013 1162h413q105 0 188.5 40t132.5 112.5t49 171.5q0 127 -89 213t-273 86h-421v-623z" />
    <glyph glyph-name="uni0182" unicode="&#x182;" horiz-adv-x="1842" 
d="M225 0v2048h1277v-266h-968v-560h458q228 0 387.5 -74t244 -209t84.5 -318t-84.5 -323t-244 -219t-387.5 -79h-767zM534 260h458q132 0 223.5 52t139 135t47.5 178q0 138 -106 237.5t-304 99.5h-458v-702z" />
    <glyph glyph-name="uni0183" unicode="&#x183;" horiz-adv-x="1762" 
d="M1419 2048v-249h-895v-512h18q26 48 75 111t136 110.5t230 47.5q186 0 332 -94t229.5 -271t83.5 -426t-83 -426.5t-228 -273t-331 -95.5q-140 0 -228.5 47t-138.5 110t-77 112h-25v-239h-292v2048h1194zM518 768q0 -162 47 -284t136 -190.5t218 -68.5q134 0 224 71.5
t136.5 194.5t46.5 277q0 152 -45.5 273t-136 191t-225.5 70q-130 0 -219.5 -67t-135.5 -187t-46 -280z" />
    <glyph glyph-name="uni0184" unicode="&#x184;" horiz-adv-x="2078" 
d="M801 2048v-266h-771v266h771zM730 1222h552q228 0 388 -74t244 -209t84 -318t-84 -323t-244 -219t-388 -79h-767v2048h310v-1788h457q132 0 224 52t139.5 135t47.5 178q0 138 -106.5 237.5t-304.5 99.5h-552v260z" />
    <glyph glyph-name="uni0185" unicode="&#x185;" horiz-adv-x="1811" 
d="M342 2112h67v-672h-67l-236 264v142zM533 1314h140q26 46 74.5 102.5t132 98t214.5 41.5q185 0 331 -94t230 -271t84 -426t-83.5 -426.5t-228.5 -273t-330 -95.5q-133 0 -217 42t-132.5 99t-74.5 103h-140v1100zM1447 768q0 154 -45.5 274.5t-137 190t-228.5 69.5
q-135 0 -224 -68.5t-132 -189t-43 -276.5q0 -158 44 -280.5t132.5 -192.5t222.5 -70q136 0 227 71t137.5 194t46.5 278zM354 2048h300v-848l-105 -427l97 -480v-293h-292v2048z" />
    <glyph glyph-name="uni0186" unicode="&#x186;" horiz-adv-x="2071" 
d="M146 666h311q19 -99 67.5 -175.5t119.5 -129.5t158.5 -80t185.5 -27q177 0 316.5 89t220.5 261t81 420q0 250 -81 422t-220.5 260t-315.5 88q-97 0 -184.5 -26.5t-158.5 -78.5t-120 -127t-69 -174l-311 1q25 152 96.5 278t182.5 217.5t254.5 141.5t311.5 50
q266 0 474 -126.5t327.5 -362.5t119.5 -563q0 -328 -120 -563.5t-328 -362t-473 -126.5q-162 0 -304 46.5t-254.5 136t-186.5 218.5t-100 293z" />
    <glyph glyph-name="uni0187" unicode="&#x187;" horiz-adv-x="2234" 
d="M1926 1382h-296v247q0 147 63.5 249.5t170.5 155.5t236 53q41 0 81.5 -1.5t76.5 -10.5v-248q-18 3 -43.5 5t-47.5 2q-64 0 -119 -20t-88.5 -69t-33.5 -135v-228zM1926 1382h-312q-18 100 -67 176t-120 129t-158.5 80t-185.5 27q-177 0 -316.5 -89t-220 -261t-80.5 -420
q0 -250 80.5 -422t220.5 -260t315 -88q97 0 184.5 26.5t158.5 78.5t120.5 127.5t68.5 173.5l312 -1q-25 -151 -96.5 -277.5t-183 -218t-254.5 -141.5t-312 -50q-266 0 -474 126.5t-327.5 362.5t-119.5 563q0 328 120 563.5t328 362t473 126.5q163 0 304.5 -46.5t254.5 -136
t187 -218t100 -293.5z" />
    <glyph glyph-name="uni0188" unicode="&#x188;" horiz-adv-x="1750" 
d="M1481 1040h-289v211q0 140 58 237.5t156 148t220 50.5q39 0 78 -3t72 -13v-226q-18 3 -40 6t-46 3q-94 0 -151.5 -44t-57.5 -160v-210zM848 -31q-223 0 -383.5 101.5t-246.5 280.5t-86 410q0 234 88 413.5t248 280.5t377 101q175 0 312 -64.5t221.5 -180.5t100.5 -271
h-291q-24 108 -109.5 186t-228.5 78q-125 0 -218.5 -65.5t-145.5 -186t-52 -284.5q0 -168 51 -290t144.5 -189t220.5 -67q85 0 154.5 31.5t117 90.5t66.5 142h291q-16 -149 -97 -266t-216.5 -184t-317.5 -67z" />
    <glyph glyph-name="uni0189" unicode="&#x189;" horiz-adv-x="2032" 
d="M888 0h-506v270h489q234 0 389 88.5t232 257t77 411.5q0 241 -76.5 409t-227.5 255t-375 87h-519v270h538q301 0 517 -122.5t331.5 -351t115.5 -547.5q0 -320 -116.5 -550t-336.5 -353.5t-532 -123.5zM534 2048v-2048h-309v2048h309zM-81 961v206h919v-206h-919z" />
    <glyph glyph-name="uni018A" unicode="&#x18a;" horiz-adv-x="2524" 
d="M124 1442v158q0 128 55 229.5t159.5 160t252.5 58.5h233v-270h-230q-81 0 -121 -35t-53 -91t-13 -119v-91h-283zM1380 0h-663v2048h684q301 0 517 -122.5t331.5 -351t115.5 -547.5q0 -320 -116.5 -550t-336.5 -353.5t-532 -123.5zM1026 270h337q234 0 389 88.5t232 257
t77 411.5q0 241 -76.5 409t-227.5 255t-375 87h-356v-1508z" />
    <glyph glyph-name="uni018B" unicode="&#x18b;" horiz-adv-x="1814" 
d="M1649 0h-764q-228 0 -388.5 79t-245.5 219t-85 323t85 319.5t245.5 212.5t388.5 76h429v514h-939v273h1274v-2016zM1314 268v690h-429q-201 0 -291.5 -97.5t-90.5 -235.5q0 -95 40 -176t124 -131t218 -50h429z" />
    <glyph glyph-name="uni018C" unicode="&#x18c;" horiz-adv-x="1762" 
d="M342 2048h976v-249h-976v249zM1537 0h-292v239h-25q-27 -49 -77.5 -112t-138.5 -110t-228 -47q-186 0 -331.5 95.5t-228 273t-82.5 426.5t83.5 426t229.5 271t331 94q143 0 230.5 -47.5t136 -110.5t75.5 -111h18v761h299v-2048zM1243 768q0 160 -46 280t-135 187t-220 67
q-135 0 -225 -70t-135.5 -191t-45.5 -273q0 -154 46 -277t136.5 -194.5t223.5 -71.5q129 0 218.5 68.5t136 190.5t46.5 284z" />
    <glyph glyph-name="uni018D" unicode="&#x18d;" horiz-adv-x="1628" 
d="M1314 -516h-1024v252h597q-17 20 -61.5 60.5t-98.5 87t-102 84.5q-145 122 -256.5 245t-175 256t-63.5 287v28q0 228 80.5 402t233.5 272t370 98q218 0 371.5 -95.5t235 -266t81.5 -394.5v-28q0 -172 -74 -314t-209 -234.5t-318 -117.5q-17 -2 -25.5 -2.5t-23.5 -0.5
q56 -49 118 -105t124.5 -113t119 -113t100.5 -106v-182zM1178 756v28q0 145 -36 261.5t-115.5 184.5t-212.5 68q-129 0 -209 -67t-117 -183.5t-37 -263.5v-28q0 -160 73 -276.5t166 -175.5q24 -8 49.5 -11t56.5 -3q134 0 218 64.5t124 170.5t40 231z" />
    <glyph glyph-name="uni018E" unicode="&#x18e;" horiz-adv-x="1698" 
d="M1473 2048v-2048h-1284v266h974v624h-908v265h908v627h-986v266h1296z" />
    <glyph glyph-name="uni018F" unicode="&#x18f;" horiz-adv-x="2072" 
d="M1009 -28q-247 0 -431.5 110t-287 317.5t-102.5 500.5v192h1475v-262h-1141v-43q1 -172 59.5 -291t167 -180.5t256.5 -61.5q179 0 300 84.5t183 236t62 348.5v194q0 157 -37.5 282t-113.5 212t-194 133t-279 46q-79 0 -163.5 -10.5t-167.5 -32t-160 -53.5l-69 259
q41 25 105.5 47t143.5 39.5t165.5 27t171.5 9.5q291 0 500.5 -118t322 -333t112.5 -508v-194q0 -273 -108 -488.5t-305 -339t-465 -123.5z" />
    <glyph glyph-name="uni0190" unicode="&#x190;" horiz-adv-x="1814" 
d="M1138 980h-259q-200 0 -354.5 63.5t-242.5 182t-88 281.5q0 179 93.5 306t256.5 195t370 68t366.5 -68.5t250.5 -194t91 -295.5h-334q0 129 -98 207.5t-276 78.5q-127 0 -212.5 -38.5t-129 -108.5t-43.5 -165q0 -84 38 -156.5t120.5 -117t218.5 -44.5h232v-194zM879 1100
h259v-190h-232q-136 0 -226 -37t-135 -112t-45 -187q0 -120 52.5 -193.5t143.5 -107t205 -33.5q208 0 311.5 92t103.5 224h335q0 -198 -102.5 -327.5t-271.5 -193t-371 -63.5q-205 0 -374 61.5t-269.5 189.5t-100.5 328q0 273 190 411t527 138z" />
    <glyph glyph-name="uni0191" unicode="&#x191;" horiz-adv-x="1671" 
d="M246 0h309v-141q0 -115 -35 -197.5t-99.5 -135.5t-156.5 -77.5t-206 -24.5q-18 0 -41 1.5t-68 9.5v245q16 -3 37.5 -4.5t41.5 -1.5q92 0 155 39.5t63 148.5v138zM246 0v2048h1270v-266h-961v-624h870v-265h-870v-893h-309z" />
    <glyph glyph-name="uni0192" unicode="&#x192;" horiz-adv-x="1166" 
d="M985 1488v-237h-287v-1329q0 -242 -120.5 -370t-343.5 -128q-45 0 -86.5 4t-85.5 16l20 254q22 -8 67.5 -12t66.5 -4q86 0 132.5 64t46.5 176v1329h-242v237h242v143q1 248 131.5 378.5t340.5 130.5q60 0 127 -10t110 -24l-54 -251q-23 6 -51.5 10.5t-68.5 4.5
q-112 0 -171.5 -59.5t-60.5 -179.5v-143h287z" />
    <glyph glyph-name="uni0193" unicode="&#x193;" horiz-adv-x="2234" 
d="M1925 1401h-315l8 248q5 111 40 196t97 144t148 89t192 30q41 0 81.5 -3t76.5 -13v-246q-20 3 -43.5 5.5t-47.5 2.5q-66 0 -119.5 -17t-85.5 -62t-32 -126v-248zM1611 1401q-29 91 -77.5 163.5t-115.5 124t-152.5 78.5t-187.5 27q-173 0 -312 -89t-219.5 -260.5
t-80.5 -419.5q0 -249 81 -421t222 -261t321 -89q167 0 291.5 68t193 192.5t68.5 293.5l80 -15h-586v255h805v-233q0 -258 -109.5 -447.5t-302 -292.5t-440.5 -103q-278 0 -487.5 128t-326.5 363.5t-117 559.5q0 245 68 440t191.5 331.5t291 209t366.5 72.5q166 0 309.5 -49
t256 -139t186.5 -213.5t100 -273.5h-317z" />
    <glyph glyph-name="uni0194" unicode="&#x194;" horiz-adv-x="1883" 
d="M50 2048h342l666 -1549q91 -208 158 -351.5t103.5 -241t36.5 -165.5q0 -109 -50 -187t-143.5 -120t-220.5 -42q-193 0 -306 92t-113 260q0 40 11 85t34 103t58.5 136t83.5 184.5t111 247.5l669 1548h344l-846 -1877q-47 -106 -81.5 -184t-53.5 -136t-19 -101
q0 -48 29.5 -78t78.5 -30t78 31t29 77q0 44 -17.5 100t-51 134.5t-81.5 186.5z" />
    <glyph glyph-name="uni0195" unicode="&#x195;" horiz-adv-x="2698" 
d="M201 0v2048h295v-762h19q54 124 165 197t290 73q158 0 276.5 -65t184 -193.5t65.5 -320.5v-209h-299v173q0 169 -87 262.5t-242 93.5q-106 0 -189.5 -45t-131 -131.5t-47.5 -208.5v-912h-299zM1745 -28q-160 0 -284 69t-194 209.5t-70 354.5v163h299v-163
q0 -155 42 -236.5t104 -111t119 -29.5q123 0 222 111.5t157 356.5t58 645v195h300v-195q0 -477 -93.5 -779.5t-262.5 -446t-397 -143.5z" />
    <glyph glyph-name="uni0196" unicode="&#x196;" horiz-adv-x="768" 
d="M201 2048h299v-1628q0 -99 25.5 -140t97.5 -39q39 1 58.5 5t35.5 9l54 -239q-31 -9 -78.5 -17.5t-107.5 -9.5q-194 -3 -289 92t-95 277v1690z" />
    <glyph glyph-name="uni0197" unicode="&#x197;" horiz-adv-x="759" 
d="M534 2048v-2048h-309v2048h309zM-81 960v207h919v-207h-919z" />
    <glyph glyph-name="uni0198" unicode="&#x198;" horiz-adv-x="1946" 
d="M225 0v2048h309v-971h25l766 834q88 95 189.5 134t206.5 24.5t202 -78.5l-113 -225q-72 43 -137.5 30t-140.5 -93l-550 -586l855 -1117h-373l-675 900l-255 -282v-618h-309z" />
    <glyph glyph-name="uni0199" unicode="&#x199;" horiz-adv-x="1542" 
d="M1167 0l-495 664l-172 -187v-477h-299v1564h299v-669h20l572 641h366l-596 -656l650 -880h-345zM500 1422h-299v219q0 115 35.5 197.5t97.5 135.5t141.5 77.5t167.5 24.5q47 0 89.5 -2.5t73.5 -10.5v-241q-18 3 -40 5.5t-45 2.5q-91 0 -156 -39.5t-65 -149.5v-219z" />
    <glyph glyph-name="uni019A" unicode="&#x19a;" horiz-adv-x="701" 
d="M500 2048v-2048h-299v2048h299zM-109 955v207h919v-207h-919z" />
    <glyph glyph-name="uni019B" unicode="&#x19b;" horiz-adv-x="1811" 
d="M1014 1938v-247l-739 -265v246zM873 1037l-368 -1037h-354l573 1521l225 -9zM502 2089q153 0 233.5 -61t124.5 -170l587 -1487q17 -42 35.5 -70t43 -41.5t56.5 -13.5h26.5h21.5l6 -257q-19 -6 -52.5 -10t-71.5 -4q-93 0 -160.5 24t-119 86.5t-96.5 177.5l-410 1072
l-153 369q-29 71 -69 98.5t-98 27.5q-14 0 -34 -0.5t-36 -3.5l-3 243q26 8 79.5 14t89.5 6z" />
    <glyph glyph-name="uni019C" unicode="&#x19c;" horiz-adv-x="2591" 
d="M2045 312v1736h321v-2048h-300zM2074 692l130 4q0 -208 -60 -371.5t-186.5 -258t-327.5 -94.5q-148 0 -259.5 59t-173.5 196.5t-62 372.5v1448h320v-1448q0 -142 35 -221t91 -110.5t120 -31.5q139 0 220.5 60.5t117 163.5t35.5 231zM1168 692l131 4q0 -209 -60.5 -372.5
t-188 -257.5t-329.5 -94q-155 0 -266 60t-170 197.5t-59 370.5v1448h323v-1448q0 -142 34 -221t89 -110.5t119 -31.5q139 0 221.5 60t119 163.5t36.5 231.5z" />
    <glyph glyph-name="uni019D" unicode="&#x19d;" horiz-adv-x="2127" 
d="M249 0h309v-141q0 -115 -36.5 -197.5t-99 -135.5t-143.5 -77.5t-170 -24.5q-37 0 -82 1.5t-75 9.5v245q17 -3 38 -4.5t41 -1.5q92 0 155 39.5t63 148.5v138zM1902 2048v-2048h-284l-1041 1502h-19v-1502h-309v2048h286l1042 -1504h19v1504h306z" />
    <glyph glyph-name="uni019E" unicode="&#x19e;" horiz-adv-x="1682" 
d="M500 912v-912h-299v1536h287v-250h19q54 123 167 196.5t286 73.5q158 0 275.5 -65.5t182.5 -194.5t65 -319v-1553h-299v1517q0 167 -86.5 261.5t-239.5 94.5q-103 0 -184 -45t-127.5 -131.5t-46.5 -208.5z" />
    <glyph glyph-name="uni019F" unicode="&#x19f;" horiz-adv-x="2163" 
d="M2004 1024q0 -328 -120 -563.5t-328.5 -362t-473.5 -126.5q-266 0 -474.5 126.5t-328.5 362.5t-120 563q0 328 120 563.5t328.5 362t474.5 126.5q265 0 473.5 -126.5t328.5 -362t120 -563.5zM1698 1024q0 250 -80.5 421.5t-220 260t-315.5 88.5q-177 0 -316 -88.5
t-219.5 -260t-80.5 -421.5t80.5 -421.5t219.5 -260t316 -88.5q176 0 315.5 88.5t220 260t80.5 421.5zM1770 1144v-240h-1377v240h1377z" />
    <glyph glyph-name="uni01A0" unicode="&#x1a0;" horiz-adv-x="2217" 
d="M1930 2180h248q0 -277 -132 -429t-401 -152v204q152 0 218.5 99.5t66.5 277.5zM2004 1024q0 -328 -120 -563.5t-328.5 -362t-473.5 -126.5q-266 0 -474.5 126.5t-328.5 362.5t-120 563q0 328 120 563.5t328.5 362t474.5 126.5q265 0 473.5 -126.5t328.5 -362t120 -563.5z
M1698 1024q0 250 -80.5 421.5t-220 260t-315.5 88.5q-177 0 -316 -88.5t-219.5 -260t-80.5 -421.5t80.5 -421.5t219.5 -260t316 -88.5q176 0 315.5 88.5t220 260t80.5 421.5z" />
    <glyph glyph-name="uni01A1" unicode="&#x1a1;" horiz-adv-x="1716" 
d="M1485 1643h231q0 -236 -106.5 -372.5t-362.5 -136.5v168q102 0 153 42.5t68 119t17 179.5zM848 -31q-216 0 -377 99t-250 277t-89 416q0 239 89 418t250 278t377 99t377 -99t250 -278t89 -418q0 -238 -89 -416t-250 -277t-377 -99zM849 220q140 0 232 74t136.5 197
t44.5 271q0 147 -44.5 270.5t-136.5 198.5t-232 75q-141 0 -233.5 -75t-137 -198.5t-44.5 -270.5q0 -148 44.5 -271t137 -197t233.5 -74z" />
    <glyph glyph-name="uni01A2" unicode="&#x1a2;" horiz-adv-x="2498" 
d="M1749 1101v-835q-60 -87 -166.5 -153t-246.5 -103.5t-300 -37.5q-207 0 -370 66.5t-276 192.5t-172 303.5t-59 400.5v161l337 4v-165q0 -217 60 -372.5t183.5 -239t312.5 -83.5q117 0 215.5 33t159.5 96v732h322zM1749 1782v-819l-322 -1v715q-56 61 -155.5 94.5
t-215.5 33.5q-143 0 -248.5 -44.5t-174.5 -132.5t-103 -217t-34 -298v-157l-337 1v156q0 226 60.5 405t176.5 303.5t282 189.5t377 65q155 0 291.5 -38.5t240.5 -105t162 -150.5zM2274 2048v-2624h-324v2276l-360 -143v305l437 186h247z" />
    <glyph glyph-name="uni01A3" unicode="&#x1a3;" horiz-adv-x="1882" 
d="M781 231q62 0 109 16.5t85 44.5v495h324v-569q-53 -70 -127 -126t-173 -88t-225 -32q-222 0 -372 102.5t-225 272t-75 372.5v50q0 222 74.5 400.5t225.5 282.5t381 104q120 0 218.5 -35t173.5 -92.5t124 -126.5v-576l-324 9v493q-37 33 -86.5 51.5t-115.5 18.5
q-139 0 -214.5 -74.5t-104.5 -195t-29 -259.5v-50q0 -149 40 -258.5t119.5 -169.5t196.5 -60zM1781 1536v-2112h-322v1718l-309 -161v365l391 190h240z" />
    <glyph glyph-name="uni01A4" unicode="&#x1a4;" horiz-adv-x="2278" 
d="M407 1442h-283v158q0 128 55 229.5t159.5 160t252.5 58.5h843q238 0 395 -87t235 -237.5t78 -338.5q0 -189 -78 -339.5t-235.5 -238t-395.5 -87.5h-420v-720h-310v1783h-109q-81 0 -121 -36.5t-53 -93.5t-13 -120v-91zM1013 982h391q152 0 245.5 52.5t137.5 143.5t44 207
t-44 206t-138.5 141t-247.5 51h-388v-801z" />
    <glyph glyph-name="uni01A5" unicode="&#x1a5;" horiz-adv-x="1738" 
d="M493 1536h-292q0 189 110.5 283.5t318.5 94.5q57 0 100 -5t64 -11v-228q-19 5 -45 8.5t-51 3.5q-99 1 -152 -36.5t-53 -109.5zM201 -576v2112h292v-249h25q26 48 75 111t136 110.5t230 47.5q186 0 332 -94t229.5 -271t83.5 -426t-83 -426.5t-228 -273t-331 -95.5
q-140 0 -228.5 47t-138.5 110t-77 112h-18v-815h-299zM494 768q0 -162 47 -284t136 -190.5t218 -68.5q134 0 224 71.5t136.5 194.5t46.5 277q0 152 -45.5 273t-136 191t-225.5 70q-130 0 -219.5 -67t-135.5 -187t-46 -280z" />
    <glyph glyph-name="uni01A6" unicode="&#x1a6;" horiz-adv-x="2070" 
d="M147 1910v280h338v-280h-338zM147 2050h704q231 0 393 -69.5t246.5 -204.5t84.5 -331q0 -148 -55 -261.5t-158 -192t-245 -121.5l-98 -44h-626l-1 268h459q129 0 216 44t130.5 120.5t43.5 173.5q0 105 -40.5 182.5t-126.5 120.5t-223 43h-365v-1778h-339v2050zM1565 -491
l-740 1397h353l745 -1380v-17h-358z" />
    <glyph glyph-name="uni01A7" unicode="&#x1a7;" horiz-adv-x="1812" 
d="M470 1510h-298q5 165 96.5 292.5t251 200.5t367.5 73q206 0 370 -73.5t260 -205.5t96 -309q0 -214 -143.5 -344t-389.5 -197l-242 -66q-110 -29 -197.5 -67t-139 -96t-51.5 -149q0 -100 59 -174.5t161.5 -116t233.5 -41.5q119 0 218.5 35.5t163 109t72.5 184.5h310
q-10 -185 -105 -319.5t-263 -207.5t-398 -73q-240 0 -409.5 78t-259 213t-89.5 309q0 138 54.5 237t142.5 166t191.5 108t200.5 65l200 52q80 21 166.5 56t146 96.5t59.5 159.5q0 87 -50.5 155.5t-142.5 108t-218 39.5q-118 0 -209 -35.5t-147.5 -102t-67.5 -161.5z" />
    <glyph glyph-name="uni01A8" unicode="&#x1a8;" horiz-adv-x="1509" 
d="M157 1161q47 180 189.5 287.5t391.5 107.5q173 0 307 -57.5t210 -159.5t75 -238q1 -164 -101 -271t-319 -156l-259 -57q-217 -49 -217 -195q0 -89 88 -150.5t235 -61.5q135 0 219 57.5t111 170.5l289 -44q-37 -204 -199.5 -314.5t-422.5 -110.5q-184 0 -326 61
t-221.5 168.5t-80.5 245.5q1 163 105 265t315 151l245 56q127 30 184 77t57 124q0 89 -85 145.5t-212 56.5q-139 0 -210 -64t-97 -142z" />
    <glyph glyph-name="uni01A9" unicode="&#x1a9;" horiz-adv-x="1815" 
d="M1608 274v-274h-1297v274h1297zM1555 2016v-274h-1261v274h1261zM1178 1018v-25l-767 -993h-230v209l641 795l-641 800v212h230z" />
    <glyph glyph-name="uni01AA" unicode="&#x1aa;" horiz-adv-x="1626" 
d="M849 1494l324 149v-1717q0 -133 48 -188.5t139 -55.5q21 0 47.5 3t52.5 9v-253q-36 -12 -85 -17.5t-91 -5.5q-213 0 -324 130t-111 378v1568zM166 1643q-1 138 67 251t182 180.5t254 67.5q138 0 252.5 -67.5t183 -180.5t68.5 -251q0 -137 -68.5 -250.5t-183 -181.5
t-252.5 -68q-140 0 -254 68t-181.5 181.5t-67.5 250.5zM670 1430q57 0 103.5 24t74 72t27.5 121q0 106 -60 160.5t-145 54.5q-61 0 -108.5 -24.5t-75 -72t-27.5 -118.5q0 -109 60 -163t151 -54z" />
    <glyph glyph-name="uni01AB" unicode="&#x1ab;" horiz-adv-x="1056" 
d="M698 221l257 53v-415q0 -209 -119.5 -321.5t-302.5 -112.5q-41 0 -79.5 2.5t-71.5 11.5v227q18 -3 40 -5.5t47 -2.5q61 0 113 17.5t84 61t32 122.5v362zM918 1536v-240h-839v240h839zM304 1904h299v-1453q0 -87 26 -130.5t67.5 -59t90.5 -15.5q36 0 63 5t42 8l54 -247
q-26 -10 -74 -20.5t-120 -11.5q-118 -2 -220 42t-165 136t-63 231v1515z" />
    <glyph glyph-name="uni01AC" unicode="&#x1ac;" horiz-adv-x="1940" 
d="M1816 2048v-266h-638v-1782h-308v1782h-287q-74 0 -115.5 -34t-58 -88t-16.5 -113v-90h-269v145q0 202 121 324t338 122h1233z" />
    <glyph glyph-name="uni01AD" unicode="&#x1ad;" horiz-adv-x="1109" 
d="M692 1499h-323v210q0 114 37 196t101 134.5t148 77.5t177 25q44 0 86 -6t77 -15v-215q-18 5 -41.5 8.5t-43.5 3.5q-61 0 -110.5 -19.5t-78.5 -65t-29 -124.5v-210zM961 1488v-237h-844v237h844zM369 1566h323v-1134q0 -113 45.5 -152t111.5 -39q35 0 67.5 5t52.5 8v-251
q-39 -12 -93.5 -21.5t-126.5 -9.5q-108 0 -194 44.5t-136 143t-50 257.5v1149z" />
    <glyph glyph-name="uni01AE" unicode="&#x1ae;" horiz-adv-x="1833" 
d="M1070 0v-141q0 -110 71 -143.5t162 -33.5h79v-258h-156q-90 0 -173 24.5t-148.5 76.5t-104 134t-38.5 198v143h308zM124 1782v266h1585v-266h-639v-1782h-308v1782h-638z" />
    <glyph glyph-name="uni01AF" unicode="&#x1af;" horiz-adv-x="2441" 
d="M2070 2155h247q0 -199 -57.5 -336t-188 -208.5t-349.5 -71.5v206q144 0 219.5 47.5t102 139t26.5 223.5zM1542 2048h310v-1347q0 -215 -101 -380.5t-284 -260t-429 -94.5q-245 0 -428 94.5t-284 260t-101 380.5v1347h309v-1322q0 -139 61.5 -247t174.5 -169.5t268 -61.5
q156 0 269.5 61.5t174 169.5t60.5 247v1322z" />
    <glyph glyph-name="uni01B0" unicode="&#x1b0;" horiz-adv-x="1834" 
d="M1665 1610h221q-1 -160 -44.5 -267.5t-150.5 -161.5t-297 -54v173q129 0 185.5 32.5t71 101t14.5 176.5zM1178 637v899h299v-1536h-294v266h-16q-53 -123 -169 -204.5t-290 -81.5q-147 0 -261 65.5t-178.5 194.5t-64.5 319v977h299v-941q0 -157 87.5 -250t225.5 -93
q84 0 167.5 42t139 127t55.5 216z" />
    <glyph glyph-name="uni01B1" unicode="&#x1b1;" horiz-adv-x="2160" 
d="M154 958q0 279 111 482t302 326v16h-413v266h756v-336q-124 -52 -226 -159.5t-163 -257t-61 -326.5q0 -201 79.5 -362.5t219.5 -256.5t321 -95q136 0 249.5 54.5t196.5 151.5t128.5 227t45.5 281q0 177 -61 326.5t-163 257t-226 159.5v336h756v-266h-413v-16
q191 -121 302 -325t111 -483q0 -217 -68 -397.5t-192 -312t-293.5 -204t-372.5 -72.5t-372.5 72.5t-293.5 204t-192 312t-68 397.5z" />
    <glyph glyph-name="uni01B2" unicode="&#x1b2;" horiz-adv-x="1811" 
d="M906 -28q-214 0 -384 77.5t-268 230.5t-98 382v1386h334v-1386q0 -215 111 -318.5t305 -103.5t304 103.5t110 318.5v906q0 129 -53 180t-159 51q-21 0 -50 -1.5t-52 -7.5v262q36 10 83.5 17t97.5 7q207 0 339.5 -131.5t132.5 -376.5v-906q0 -228 -102 -381.5t-273 -231
t-378 -77.5z" />
    <glyph glyph-name="uni01B3" unicode="&#x1b3;" horiz-adv-x="2066" 
d="M75 2048h347l554 -931h24l424 710q73 122 170 182t205.5 63.5t215.5 -42.5l-73 -242q-82 31 -146 11.5t-120 -110.5l-534 -863v-826h-308v826z" />
    <glyph glyph-name="uni01B4" unicode="&#x1b4;" horiz-adv-x="1777" 
d="M390 -576q-67 0 -122 10.5t-82 22.5l72 245q82 -22 146 -19t113.5 48t87.5 147l37 102l-562 1556h320l389 -1192h16l365 1105q38 118 96 220.5t145 165.5t211 63q77 0 146 -23t121 -59l-68 -218q-38 18 -77.5 30t-76.5 11q-78 -2 -124.5 -70t-95.5 -209l-561 -1565
q-65 -181 -187.5 -276t-308.5 -95z" />
    <glyph glyph-name="uni01B5" unicode="&#x1b5;" horiz-adv-x="1799" 
d="M172 0v206l1077 1576h-1086v266h1464v-206l-1077 -1576h1086v-266h-1464zM464 960v207h919v-207h-919z" />
    <glyph glyph-name="uni01B6" unicode="&#x1b6;" horiz-adv-x="1553" 
d="M169 0v205l832 1057v14h-805v260h1178v-218l-800 -1044v-14h828v-260h-1233zM314 667v207h919v-207h-919z" />
    <glyph glyph-name="uni01B7" unicode="&#x1b7;" horiz-adv-x="1924" 
d="M124 108h314q8 -131 79 -231t184.5 -156t248.5 -56q161 0 278 77.5t180 211t63 300.5q0 189 -79.5 326.5t-219 213t-321.5 75.5h-175v243l646 650v16h-1083v270h1492v-224l-705 -713v-20q224 -12 394.5 -120.5t266.5 -292t96 -419.5q0 -188 -60 -346.5t-171 -275
t-264 -180t-339 -63.5q-226 0 -409.5 91t-294.5 252t-121 371z" />
    <glyph glyph-name="uni01B8" unicode="&#x1b8;" horiz-adv-x="1924" 
d="M1800 108q-10 -210 -121 -371t-294 -252t-410 -91q-186 0 -339 63.5t-264 180t-171 275t-60 346.5q0 236 96 419.5t267 292t394 120.5v20l-705 713v224h1492v-270h-1083v-16l646 -650v-243h-175q-181 0 -321 -75.5t-219.5 -213t-79.5 -326.5q0 -167 63 -300.5t180 -211
t278 -77.5q135 0 249 56t184.5 156t78.5 231h314z" />
    <glyph glyph-name="uni01B9" unicode="&#x1b9;" horiz-adv-x="1794" 
d="M1630 22q-10 -174 -107.5 -300t-257 -194t-356.5 -68q-212 0 -377 77.5t-259 214.5t-94 314q0 160 77.5 291.5t218.5 215t330 95.5v16l-549 628v224h1273v-265h-869v-15l493 -568v-234h-183q-169 0 -274.5 -52t-154.5 -138t-49 -188q0 -114 54.5 -192t148 -118t211.5 -40
q110 0 199.5 34t145.5 100.5t65 161.5h314z" />
    <glyph glyph-name="uni01BA" unicode="&#x1ba;" horiz-adv-x="1554" 
d="M207 1536h1211v-192l-772 -675h-176v195l472 414h-735v258zM451 -178q0 -89 74.5 -138t197.5 -49q80 0 153.5 22.5t122 77.5t54.5 151h313q0 -123 -72.5 -236.5t-212.5 -186.5t-343 -73q-184 0 -319.5 57t-210 159t-74.5 236q0 121 62.5 209.5t187.5 149.5t312 99
q113 23 180 49t95.5 64t28.5 98q0 74 -61.5 116t-197.5 42h-132l13 243h119q177 0 307 -53.5t200 -146.5t70 -213q0 -134 -71 -220.5t-196.5 -140.5t-288.5 -90q-125 -26 -192 -61.5t-93 -77t-26 -87.5z" />
    <glyph glyph-name="uni01BB" unicode="&#x1bb;" horiz-adv-x="1727" 
d="M197 0v224l693 718q111 117 183.5 205.5t108.5 168.5t36 170q0 102 -48 176.5t-131 115t-187 40.5q-110 0 -192 -45t-126 -127t-44 -192h-295q0 187 86 327t236 217.5t341 77.5q193 0 340.5 -76.5t230.5 -208t83 -296.5q0 -114 -42.5 -223t-147.5 -242.5t-292 -323.5
l-407 -426v-15h922v-265h-1348zM710 968v207h919v-207h-919z" />
    <glyph glyph-name="uni01BC" unicode="&#x1bc;" horiz-adv-x="1717" 
d="M538 2048v-265h-444v265h444zM889 -28q-188 0 -337.5 72.5t-238.5 199.5t-95 290h300q11 -132 117 -217t254 -85q118 0 209.5 54.5t144 150.5t52.5 219q0 125 -54 223t-148.5 154t-216.5 57q-93 0 -187 -32t-152 -84l-283 42l115 1032h1126v-265h-869l-65 -573h12
q60 58 159.5 97t213.5 39q187 0 333.5 -89t231 -242.5t83.5 -352.5q1 -199 -89.5 -355t-250 -245.5t-365.5 -89.5z" />
    <glyph glyph-name="uni01BD" unicode="&#x1bd;" horiz-adv-x="1628" 
d="M598 643l-284 19l102 826h974v-267h-705l-39 -299q45 29 127 52.5t167 26.5q168 3 288 -56.5t183.5 -175t63.5 -278.5q0 -145 -62 -262t-197 -185t-354 -68q-106 0 -213.5 27t-196 83t-142.5 141.5t-54 200.5l314 22q3 -99 83.5 -155.5t208.5 -56.5q152 0 222 73.5
t70 189.5t-73 188.5t-215 72.5q-108 0 -170 -35.5t-98 -83.5zM576 1488v-267h-423v267h423z" />
    <glyph glyph-name="uni01BE" unicode="&#x1be;" horiz-adv-x="1554" 
d="M1076 402q0 65 -36.5 108.5t-94 79t-122.5 74.5t-122.5 93.5t-94 135.5t-36.5 201v755h324v-751q1 -89 37 -145t93 -94t121.5 -72.5t121.5 -78.5t93 -111.5t36 -173.5q0 -132 -75 -233.5t-210.5 -159.5t-316.5 -58q-206 0 -347 73t-213.5 187.5t-72.5 237.5h317
q4 -95 52.5 -150.5t120.5 -79t145 -23.5q89 0 152 24t95.5 65.5t32.5 95.5zM1162 1488v-237h-844v237h844z" />
    <glyph glyph-name="uni01BF" unicode="&#x1bf;" horiz-adv-x="1817" 
d="M578 1252v-1824h-325v2108h299zM514 910l-147 -91q19 167 62.5 302.5t117 232.5t180 149.5t248.5 52.5q191 0 322.5 -95.5t199 -266t67.5 -396.5v-69q0 -215 -74.5 -371.5t-216.5 -269t-344 -194.5t-457 -151l-12 257q225 46 401 134.5t277 233.5t101 361v69
q0 134 -36.5 246.5t-115 180t-205.5 67.5q-116 0 -192 -51t-118 -137.5t-58 -193.5z" />
    <glyph glyph-name="uni01C0" unicode="&#x1c0;" horiz-adv-x="780" 
d="M505 2036v-2036h-230v2036h230z" />
    <glyph glyph-name="uni01C1" unicode="&#x1c1;" horiz-adv-x="1042" 
d="M439 2036v-2036h-230v2036h230zM811 2036v-2036h-230v2036h230z" />
    <glyph glyph-name="uni01C2" unicode="&#x1c2;" horiz-adv-x="917" 
d="M573 2036v-2036h-230v2036h230zM-4 1259v207h919v-207h-919zM1 587v207h919v-207h-919z" />
    <glyph glyph-name="uni01C3" unicode="&#x1c3;" horiz-adv-x="827" 
d="M578 2048l-26 -1459h-277l-26 1459h329zM414 -19q-83 0 -142 58.5t-58 141.5q-1 82 58 140.5t142 58.5q81 0 140 -58.5t60 -140.5q-1 -55 -28.5 -100.5t-72.5 -72.5t-99 -27z" />
    <glyph glyph-name="uni01C5" unicode="&#x1c5;" horiz-adv-x="3585" 
d="M888 0h-663v2048h684q301 0 517 -122.5t331.5 -351t115.5 -547.5q0 -320 -116.5 -550t-336.5 -353.5t-532 -123.5zM534 270h337q234 0 389 88.5t232 257t77 411.5q0 241 -76.5 409t-227.5 255t-375 87h-356v-1508zM2201 0v205l832 1057v14h-805v260h1178v-218l-800 -1044
v-14h828v-260h-1233zM2601 2159l205 -268l206 268h270v-15l-351 -424h-249l-352 424v15h271z" />
    <glyph glyph-name="uni01C6" unicode="&#x1c6;" horiz-adv-x="3035" 
d="M776 -30q-186 0 -331.5 95.5t-228 273t-82.5 426.5t83.5 426t229.5 271t331 94q143 0 230.5 -47.5t136 -110.5t75.5 -111h18v761h299v-2048h-292v239h-25q-27 -49 -77.5 -112t-138.5 -110t-228 -47zM842 225q129 0 218.5 68.5t136 190.5t46.5 284q0 160 -46 280t-135 187
t-220 67q-135 0 -225 -70t-135.5 -191t-45.5 -273q0 -154 46 -277t136.5 -194.5t223.5 -71.5zM1651 0v205l832 1057v14h-805v260h1178v-218l-800 -1044v-14h828v-260h-1233zM2051 2159l205 -268l206 268h270v-15l-351 -424h-249l-352 424v15h271z" />
    <glyph glyph-name="uni01C7" unicode="&#x1c7;" horiz-adv-x="3142" 
d="M225 0v2048h309v-1782h928v-266h-1237zM2610 2048h308v-1452q0 -197 -77.5 -337t-217.5 -213.5t-328 -73.5q-173 0 -310.5 63t-217 183.5t-79.5 293.5h307q0 -85 39.5 -147t109 -96.5t159.5 -34.5q98 0 166.5 41.5t104.5 122.5t36 198v1452z" />
    <glyph glyph-name="uni01C8" unicode="&#x1c8;" horiz-adv-x="2290" 
d="M225 0v2048h309v-1782h928v-266h-1237zM1790 1536h299v-1636q0 -154 -55.5 -260t-164 -161t-267.5 -55h-30.5t-30.5 1v257h24.5h23.5q106 0 153.5 56.5t47.5 163.5v1634zM1938 1773q-78 0 -133.5 52.5t-55.5 125.5q0 74 55.5 126.5t133.5 52.5t133.5 -52.5t55.5 -126.5
q0 -73 -55.5 -125.5t-133.5 -52.5z" />
    <glyph glyph-name="uni01C9" unicode="&#x1c9;" horiz-adv-x="1397" 
d="M500 2048v-2048h-299v2048h299zM883 1536h299v-1636q0 -154 -55.5 -260t-164 -161t-267.5 -55h-30.5t-30.5 1v257h24.5h23.5q106 0 153.5 56.5t47.5 163.5v1634zM1031 1773q-78 0 -133.5 52.5t-55.5 125.5q0 74 55.5 126.5t133.5 52.5t133.5 -52.5t55.5 -126.5
q0 -73 -55.5 -125.5t-133.5 -52.5z" />
    <glyph glyph-name="uni01CA" unicode="&#x1ca;" horiz-adv-x="3657" 
d="M1878 2048v-2048h-284l-1041 1502h-19v-1502h-309v2048h286l1042 -1504h19v1504h306zM3124 2048h308v-1452q0 -197 -77.5 -337t-217.5 -213.5t-328 -73.5q-173 0 -310.5 63t-217 183.5t-79.5 293.5h307q0 -85 39.5 -147t109 -96.5t159.5 -34.5q98 0 166.5 41.5
t104.5 122.5t36 198v1452z" />
    <glyph glyph-name="uni01CB" unicode="&#x1cb;" horiz-adv-x="2753" 
d="M1878 2048v-2048h-284l-1041 1502h-19v-1502h-309v2048h286l1042 -1504h19v1504h306zM2253 1536h299v-1636q0 -154 -55.5 -260t-164 -161t-267.5 -55h-30.5t-30.5 1v257h24.5h23.5q106 0 153.5 56.5t47.5 163.5v1634zM2401 1773q-78 0 -133.5 52.5t-55.5 125.5
q0 74 55.5 126.5t133.5 52.5t133.5 -52.5t55.5 -126.5q0 -73 -55.5 -125.5t-133.5 -52.5z" />
    <glyph glyph-name="uni01CC" unicode="&#x1cc;" horiz-adv-x="2383" 
d="M500 912v-912h-299v1536h287v-250h19q53 122 166.5 196t286.5 74q157 0 275 -65.5t183 -194.5t65 -319v-977h-299v941q0 167 -87 261.5t-239 94.5q-104 0 -184.5 -45t-127 -131.5t-46.5 -208.5zM1883 1536h299v-1636q0 -154 -55.5 -260t-164 -161t-267.5 -55h-30.5
t-30.5 1v257h24.5h23.5q106 0 153.5 56.5t47.5 163.5v1634zM2031 1773q-78 0 -133.5 52.5t-55.5 125.5q0 74 55.5 126.5t133.5 52.5t133.5 -52.5t55.5 -126.5q0 -73 -55.5 -125.5t-133.5 -52.5z" />
    <glyph glyph-name="uni01CD" unicode="&#x1cd;" horiz-adv-x="1971" 
d="M398 0h-328l737 2048h357l737 -2048h-328l-579 1676h-16zM453 802h1064v-260h-1064v260zM780 2671l206 -268l205 268h271v-15l-352 -424h-249l-351 424v15h270z" />
    <glyph glyph-name="uni01CE" unicode="&#x1ce;" horiz-adv-x="1603" 
d="M648 -34q-146 0 -264 54.5t-186.5 158.5t-68.5 255q0 130 50 214t135 133t190 74t214 38q138 16 224 26.5t125 34.5t39 78v7q0 131 -73.5 203t-218.5 72q-151 0 -237.5 -66.5t-119.5 -147.5l-281 64q50 140 146.5 226.5t222.5 126t265 39.5q92 0 195.5 -21.5t194 -78.5
t148.5 -162.5t58 -273.5v-1020h-292v210h-12q-29 -58 -87 -114t-149 -93t-218 -37zM713 206q124 0 212.5 49t135 128.5t46.5 170.5v198q-16 -16 -61.5 -29.5t-103.5 -23t-113 -17t-92 -12.5q-87 -11 -158.5 -37t-114 -74.5t-42.5 -128.5q0 -111 82 -167.5t209 -56.5z
M620 2159l206 -268l205 268h271v-15l-352 -424h-249l-351 424v15h270z" />
    <glyph glyph-name="uni01CF" unicode="&#x1cf;" horiz-adv-x="759" 
d="M534 2048v-2048h-309v2048h309zM174 2671l206 -268l205 268h271v-15l-352 -424h-249l-351 424v15h270z" />
    <glyph glyph-name="uni01D0" unicode="&#x1d0;" horiz-adv-x="701" 
d="M201 0v1536h299v-1536h-299zM146 2159l206 -268l205 268h271v-15l-352 -424h-249l-351 424v15h270z" />
    <glyph glyph-name="uni01D1" unicode="&#x1d1;" horiz-adv-x="2163" 
d="M2004 1024q0 -328 -120 -563.5t-328.5 -362t-473.5 -126.5q-266 0 -474.5 126.5t-328.5 362.5t-120 563q0 328 120 563.5t328.5 362t474.5 126.5q265 0 473.5 -126.5t328.5 -362t120 -563.5zM1698 1024q0 250 -80.5 421.5t-220 260t-315.5 88.5q-177 0 -316 -88.5
t-219.5 -260t-80.5 -421.5t80.5 -421.5t219.5 -260t316 -88.5q176 0 315.5 88.5t220 260t80.5 421.5zM876 2671l206 -268l205 268h271v-15l-352 -424h-249l-351 424v15h270z" />
    <glyph glyph-name="uni01D2" unicode="&#x1d2;" horiz-adv-x="1696" 
d="M848 -31q-216 0 -377 99t-250 277t-89 416q0 239 89 418t250 278t377 99t377 -99t250 -278t89 -418q0 -238 -89 -416t-250 -277t-377 -99zM849 220q140 0 232 74t136.5 197t44.5 271q0 147 -44.5 270.5t-136.5 198.5t-232 75q-141 0 -233.5 -75t-137 -198.5t-44.5 -270.5
q0 -148 44.5 -271t137 -197t233.5 -74zM642 2159l206 -268l205 268h271v-15l-352 -424h-249l-351 424v15h270z" />
    <glyph glyph-name="uni01D3" unicode="&#x1d3;" horiz-adv-x="2077" 
d="M1542 2048h310v-1347q0 -215 -101 -380.5t-284 -260t-429 -94.5q-245 0 -428 94.5t-284 260t-101 380.5v1347h309v-1322q0 -139 61.5 -247t174.5 -169.5t268 -61.5q156 0 269.5 61.5t174 169.5t60.5 247v1322zM833 2671l206 -268l205 268h271v-15l-352 -424h-249
l-351 424v15h270z" />
    <glyph glyph-name="uni01D4" unicode="&#x1d4;" horiz-adv-x="1674" 
d="M1174 637v899h300v-1536h-294v266h-16q-53 -123 -169.5 -204.5t-289.5 -81.5q-148 0 -261.5 65.5t-178 194.5t-64.5 319v977h299v-941q0 -157 87 -250t226 -93q84 0 167.5 42t139 127t54.5 216zM634 2159l206 -268l205 268h271v-15l-352 -424h-249l-351 424v15h270z" />
    <glyph glyph-name="uni01D5" unicode="&#x1d5;" horiz-adv-x="2077" 
d="M1542 2048h310v-1347q0 -215 -101 -380.5t-284 -260t-429 -94.5q-245 0 -428 94.5t-284 260t-101 380.5v1347h309v-1322q0 -139 61.5 -247t174.5 -169.5t268 -61.5q156 0 269.5 61.5t174 169.5t60.5 247v1322zM745 2289q-71 0 -124 52.5t-53 121.5q0 75 53 125t124 50
q75 0 125.5 -50t50.5 -125q0 -69 -50.5 -121.5t-125.5 -52.5zM1333 2289q-71 0 -124 52.5t-53 121.5q0 75 53 125t124 50q75 0 125.5 -50t50.5 -125q0 -69 -50.5 -121.5t-125.5 -52.5zM1513 3072v-210h-949v210h949z" />
    <glyph glyph-name="uni01D6" unicode="&#x1d6;" horiz-adv-x="1674" 
d="M1174 637v899h300v-1536h-294v266h-16q-53 -123 -169.5 -204.5t-289.5 -81.5q-148 0 -261.5 65.5t-178 194.5t-64.5 319v977h299v-941q0 -157 87 -250t226 -93q84 0 167.5 42t139 127t54.5 216zM546 1777q-71 0 -124 52.5t-53 121.5q0 75 53 125t124 50q75 0 125.5 -50
t50.5 -125q0 -69 -50.5 -121.5t-125.5 -52.5zM1134 1777q-71 0 -124 52.5t-53 121.5q0 75 53 125t124 50q75 0 125.5 -50t50.5 -125q0 -69 -50.5 -121.5t-125.5 -52.5zM1314 2560v-210h-949v210h949z" />
    <glyph glyph-name="uni01D7" unicode="&#x1d7;" horiz-adv-x="2077" 
d="M1542 2048h310v-1347q0 -215 -101 -380.5t-284 -260t-429 -94.5q-245 0 -428 94.5t-284 260t-101 380.5v1347h309v-1322q0 -139 61.5 -247t174.5 -169.5t268 -61.5q156 0 269.5 61.5t174 169.5t60.5 247v1322zM914 2680l287 320h311l-357 -320h-241zM749 2202
q-70 0 -122 51t-52 118q0 73 52 121.5t122 48.5q73 0 122.5 -48.5t49.5 -121.5q0 -67 -49.5 -118t-122.5 -51zM1328 2202q-69 0 -121 51t-52 118q0 73 52 121.5t121 48.5q74 0 123.5 -48.5t49.5 -121.5q0 -67 -49.5 -118t-123.5 -51z" />
    <glyph glyph-name="uni01D8" unicode="&#x1d8;" horiz-adv-x="1674" 
d="M1174 637v899h300v-1536h-294v266h-16q-53 -123 -169.5 -204.5t-289.5 -81.5q-148 0 -261.5 65.5t-178 194.5t-64.5 319v977h299v-941q0 -157 87 -250t226 -93q84 0 167.5 42t139 127t54.5 216zM545 1777q-70 0 -123 52.5t-53 121.5q0 75 53 125t123 50q75 0 125.5 -50
t50.5 -125q0 -69 -50.5 -121.5t-125.5 -52.5zM1133 1777q-70 0 -123 52.5t-53 121.5q0 75 53 125t123 50q75 0 125.5 -50t50.5 -125q0 -69 -50.5 -121.5t-125.5 -52.5zM716 2253l233 461h316l-310 -461h-239z" />
    <glyph glyph-name="uni01D9" unicode="&#x1d9;" horiz-adv-x="2077" 
d="M1542 2048h310v-1347q0 -215 -101 -380.5t-284 -260t-429 -94.5q-245 0 -428 94.5t-284 260t-101 380.5v1347h309v-1322q0 -139 61.5 -247t174.5 -169.5t268 -61.5q156 0 269.5 61.5t174 169.5t60.5 247v1322zM553 2422q0 65 44 111t123 46q81 0 126 -46t45 -112
t-44.5 -109.5t-125.5 -43.5t-124.5 45t-43.5 109zM1185 2420q0 65 45 110.5t127 45.5q78 0 123 -45t45 -110q0 -63 -44 -109.5t-124 -46.5q-82 0 -127 45.5t-45 109.5zM841 2896l195 -166l195 166h277v-23l-367 -306h-209l-366 304v25h275z" />
    <glyph glyph-name="uni01DA" unicode="&#x1da;" horiz-adv-x="1674" 
d="M1174 637v899h300v-1536h-294v266h-16q-53 -123 -169.5 -204.5t-289.5 -81.5q-148 0 -261.5 65.5t-178 194.5t-64.5 319v977h299v-941q0 -157 87 -250t226 -93q84 0 167.5 42t139 127t54.5 216zM358 1895q0 64 45 112.5t125 48.5q81 0 127.5 -47t46.5 -114t-47 -112
t-127 -45q-78 0 -124 45.5t-46 111.5zM982 1892q0 67 46.5 115.5t126.5 48.5q81 0 127.5 -48.5t46.5 -115.5q0 -64 -46.5 -111t-127.5 -47q-80 0 -126.5 47t-46.5 111zM637 2542l202 -218l203 218h276v-16l-378 -382h-202l-376 383v15h275z" />
    <glyph glyph-name="uni01DB" unicode="&#x1db;" horiz-adv-x="2077" 
d="M1542 2048h310v-1347q0 -215 -101 -380.5t-284 -260t-429 -94.5q-245 0 -428 94.5t-284 260t-101 380.5v1347h309v-1322q0 -139 61.5 -247t174.5 -169.5t268 -61.5q156 0 269.5 61.5t174 169.5t60.5 247v1322zM973 2818l177 -296h-192l-252 296h267zM552 2422
q0 65 44.5 111t122.5 46q82 0 127 -46t45 -112t-45 -109.5t-125 -43.5q-82 0 -125.5 45t-43.5 109zM1185 2420q0 66 45 111t126 45q79 0 123.5 -45.5t44.5 -109.5q0 -63 -43.5 -109.5t-124.5 -46.5t-126 45t-45 110z" />
    <glyph glyph-name="uni01DC" unicode="&#x1dc;" horiz-adv-x="1674" 
d="M1174 637v899h300v-1536h-294v266h-16q-53 -123 -169.5 -204.5t-289.5 -81.5q-148 0 -261.5 65.5t-178 194.5t-64.5 319v977h299v-941q0 -157 87 -250t226 -93q84 0 167.5 42t139 127t54.5 216zM357 1895q0 64 44.5 112.5t125.5 48.5t127 -47t46 -114q0 -66 -46 -111.5
t-127 -45.5q-78 0 -124 45.5t-46 111.5zM981 1892q0 67 46.5 115.5t127.5 48.5q80 0 126.5 -48.5t46.5 -115.5q0 -64 -46.5 -111t-126.5 -47q-81 0 -127.5 47t-46.5 111zM740 2539l272 -414h-272l-374 414h374z" />
    <glyph glyph-name="uni01DD" unicode="&#x1dd;" horiz-adv-x="1654" 
d="M791 1567q227 0 391 -97.5t252 -275t88 -416.5q0 -236 -88 -416t-247.5 -281t-373.5 -101q-131 0 -253 43t-218.5 135t-153 239t-56.5 355v106h1222v-224h-928q0 -118 47.5 -209.5t134 -144.5t202.5 -53q128 0 220.5 61.5t143.5 160.5t51 213v175q0 155 -54.5 262.5
t-152.5 164t-229 56.5q-85 0 -155.5 -24.5t-121 -73t-78.5 -121.5l-283 51q34 125 121.5 218.5t219.5 145t299 51.5z" />
    <glyph glyph-name="uni01DE" unicode="&#x1de;" horiz-adv-x="1971" 
d="M398 0h-328l737 2048h357l737 -2048h-328l-579 1676h-16zM453 802h1064v-260h-1064v260zM692 2289q-71 0 -124 52.5t-53 121.5q0 75 53 125t124 50q75 0 125.5 -50t50.5 -125q0 -69 -50.5 -121.5t-125.5 -52.5zM1280 2289q-71 0 -124 52.5t-53 121.5q0 75 53 125t124 50
q75 0 125.5 -50t50.5 -125q0 -69 -50.5 -121.5t-125.5 -52.5zM1460 3072v-210h-949v210h949z" />
    <glyph glyph-name="uni01DF" unicode="&#x1df;" horiz-adv-x="1603" 
d="M648 -34q-146 0 -264 54.5t-186.5 158.5t-68.5 255q0 130 50 214t135 133t190 74t214 38q138 16 224 26.5t125 34.5t39 78v7q0 131 -73.5 203t-218.5 72q-151 0 -237.5 -66.5t-119.5 -147.5l-281 64q50 140 146.5 226.5t222.5 126t265 39.5q92 0 195.5 -21.5t194 -78.5
t148.5 -162.5t58 -273.5v-1020h-292v210h-12q-29 -58 -87 -114t-149 -93t-218 -37zM713 206q124 0 212.5 49t135 128.5t46.5 170.5v198q-16 -16 -61.5 -29.5t-103.5 -23t-113 -17t-92 -12.5q-87 -11 -158.5 -37t-114 -74.5t-42.5 -128.5q0 -111 82 -167.5t209 -56.5z
M532 1777q-71 0 -124 52.5t-53 121.5q0 75 53 125t124 50q75 0 125.5 -50t50.5 -125q0 -69 -50.5 -121.5t-125.5 -52.5zM1120 1777q-71 0 -124 52.5t-53 121.5q0 75 53 125t124 50q75 0 125.5 -50t50.5 -125q0 -69 -50.5 -121.5t-125.5 -52.5zM1300 2560v-210h-949v210h949z
" />
    <glyph glyph-name="uni01E0" unicode="&#x1e0;" horiz-adv-x="1971" 
d="M398 0h-328l737 2048h357l737 -2048h-328l-579 1676h-16zM453 802h1064v-260h-1064v260zM986 2289q-76 0 -130 51t-54 123t54 123t130 51q75 0 129 -51t54 -123t-54 -123t-129 -51zM1460 3072v-210h-949v210h949z" />
    <glyph glyph-name="uni01E1" unicode="&#x1e1;" horiz-adv-x="1603" 
d="M648 -34q-146 0 -264 54.5t-186.5 158.5t-68.5 255q0 130 50 214t135 133t190 74t214 38q138 16 224 26.5t125 34.5t39 78v7q0 131 -73.5 203t-218.5 72q-151 0 -237.5 -66.5t-119.5 -147.5l-281 64q50 140 146.5 226.5t222.5 126t265 39.5q92 0 195.5 -21.5t194 -78.5
t148.5 -162.5t58 -273.5v-1020h-292v210h-12q-29 -58 -87 -114t-149 -93t-218 -37zM713 206q124 0 212.5 49t135 128.5t46.5 170.5v198q-16 -16 -61.5 -29.5t-103.5 -23t-113 -17t-92 -12.5q-87 -11 -158.5 -37t-114 -74.5t-42.5 -128.5q0 -111 82 -167.5t209 -56.5z
M1303 2555v-211h-949v211h949zM829 1771q-75 0 -129 51.5t-54 123.5t54 123t129 51t129 -51t54 -123t-54 -123.5t-129 -51.5z" />
    <glyph glyph-name="uni01E2" unicode="&#x1e2;" horiz-adv-x="2826" 
d="M70 0l954 2048h1613v-266h-975v-624h908v-265h-908v-627h987v-266h-1296v1759h-147l-796 -1759h-340zM518 542v260h1000v-260h-1000zM2303 2560v-210h-949v210h949z" />
    <glyph glyph-name="uni01E3" unicode="&#x1e3;" horiz-adv-x="2594" 
d="M1811 -31q-241 0 -407 114.5t-212 306.5l25 810q81 172 223 264t341 92q131 0 252.5 -43t218.5 -135t153.5 -238.5t56.5 -355.5v-106h-1212v224h918q0 118 -48 209.5t-134.5 144.5t-202.5 53q-126 0 -219 -61.5t-144 -160.5t-51 -213v-175q0 -154 55 -262t153 -164.5
t228 -56.5q86 0 155.5 24.5t120.5 73.5t78 121l283 -51q-34 -125 -121 -218.5t-217.5 -145t-292.5 -51.5zM713 206q124 0 212.5 49t135 128.5t46.5 170.5v198q-16 -16 -61.5 -29.5t-103.5 -23t-113 -17t-92 -12.5q-87 -11 -158.5 -37t-114 -74.5t-42.5 -128.5
q0 -111 82 -167.5t209 -56.5zM656 -34q-150 0 -269.5 54.5t-188.5 158.5t-69 255q0 130 50.5 214t135 133.5t190 74.5t213.5 37q138 16 224 27t125 34.5t39 77.5v7q0 130 -73.5 202.5t-218.5 72.5q-150 0 -237 -66t-120 -148l-281 64q50 140 146 226.5t223 126t267 39.5
q65 0 140.5 -12t149 -44.5t133.5 -93.5t92 -160l-78 -976h-23q-33 -86 -117.5 -155t-202 -109t-250.5 -40zM1750 2048v-210h-949v210h949z" />
    <glyph glyph-name="uni01E4" unicode="&#x1e4;" horiz-adv-x="2109" 
d="M2067 637v-185h-930v185h930zM1611 1401q-29 91 -77.5 163.5t-115.5 124t-152.5 78.5t-187.5 27q-173 0 -312 -89t-219.5 -260.5t-80.5 -419.5q0 -249 81 -421t222 -261t321 -89q167 0 291.5 68t193 192.5t68.5 293.5l80 -15h-586v255h805v-233q0 -258 -109.5 -447.5
t-302 -292.5t-440.5 -103q-278 0 -487.5 128t-326.5 363.5t-117 559.5q0 245 68 440t191.5 331.5t291 209t366.5 72.5q166 0 309.5 -49t256 -139t186.5 -213.5t100 -273.5h-317z" />
    <glyph glyph-name="uni01E5" unicode="&#x1e5;" horiz-adv-x="1738" 
d="M845 -608q-183 0 -314.5 48t-214.5 127t-124 173l257 106q27 -44 72.5 -93.5t124 -84.5t202.5 -35q170 0 281 82.5t111 262.5v302h-19q-27 -49 -77.5 -109t-138.5 -104t-229 -44q-182 0 -327.5 85.5t-230 253t-84.5 412.5t83.5 420t229.5 268.5t331 93.5q143 0 231 -47.5
t137.5 -110.5t76.5 -111h22v249h293v-1570q0 -198 -92 -325t-248.5 -188t-352.5 -61zM842 271q129 0 218.5 60.5t136 174t46.5 272.5q0 155 -46 273t-135 184.5t-220 66.5q-135 0 -225 -69.5t-135.5 -188.5t-45.5 -266q0 -151 46 -265t136.5 -178t223.5 -64zM932 676v207
h919v-207h-919z" />
    <glyph glyph-name="uni01E6" unicode="&#x1e6;" horiz-adv-x="2109" 
d="M1611 1401q-29 91 -77.5 163.5t-115.5 124t-152.5 78.5t-187.5 27q-173 0 -312 -89t-219.5 -260.5t-80.5 -419.5q0 -249 81 -421t222 -261t321 -89q167 0 291.5 68t193 192.5t68.5 293.5l80 -15h-586v255h805v-233q0 -258 -109.5 -447.5t-302 -292.5t-440.5 -103
q-278 0 -487.5 128t-326.5 363.5t-117 559.5q0 245 68 440t191.5 331.5t291 209t366.5 72.5q166 0 309.5 -49t256 -139t186.5 -213.5t100 -273.5h-317zM867 2671l206 -268l205 268h271v-15l-352 -424h-249l-351 424v15h270z" />
    <glyph glyph-name="uni01E7" unicode="&#x1e7;" horiz-adv-x="1738" 
d="M845 -608q-183 0 -314.5 48t-214.5 127t-124 173l257 106q27 -44 72.5 -93.5t124 -84.5t202.5 -35q170 0 281 82.5t111 262.5v302h-19q-27 -49 -77.5 -109t-138.5 -104t-229 -44q-182 0 -327.5 85.5t-230 253t-84.5 412.5t83.5 420t229.5 268.5t331 93.5q143 0 231 -47.5
t137.5 -110.5t76.5 -111h22v249h293v-1570q0 -198 -92 -325t-248.5 -188t-352.5 -61zM842 271q129 0 218.5 60.5t136 174t46.5 272.5q0 155 -46 273t-135 184.5t-220 66.5q-135 0 -225 -69.5t-135.5 -188.5t-45.5 -266q0 -151 46 -265t136.5 -178t223.5 -64zM658 2159
l206 -268l205 268h271v-15l-352 -424h-249l-351 424v15h270z" />
    <glyph glyph-name="uni01E8" unicode="&#x1e8;" horiz-adv-x="1871" 
d="M225 0v2048h309v-978h25l859 978h389l-826 -922l829 -1126h-372l-662 915l-242 -278v-637h-309zM736 2671l206 -268l205 268h271v-15l-352 -424h-249l-351 424v15h270z" />
    <glyph glyph-name="uni01E9" unicode="&#x1e9;" horiz-adv-x="1567" 
d="M476 521l-2 365h52l612 650h358l-698 -740h-47zM201 0v2048h299v-2048h-299zM1171 0l-550 730l206 209l711 -939h-367zM146 2671l206 -268l205 268h271v-15l-352 -424h-249l-351 424v15h270z" />
    <glyph glyph-name="uni01EA" unicode="&#x1ea;" horiz-adv-x="2163" 
d="M2004 1024q0 -328 -120 -563.5t-328.5 -362t-473.5 -126.5q-266 0 -474.5 126.5t-328.5 362.5t-120 563q0 328 120 563.5t328.5 362t474.5 126.5q265 0 473.5 -126.5t328.5 -362t120 -563.5zM1698 1024q0 250 -80.5 421.5t-220 260t-315.5 88.5q-177 0 -316 -88.5
t-219.5 -260t-80.5 -421.5t80.5 -421.5t219.5 -260t316 -88.5q176 0 315.5 88.5t220 260t80.5 421.5zM1105 -596q-126 0 -209.5 68t-91.5 196q-5 76 25 153t100.5 146t188.5 123l177 -95q-91 -59 -158.5 -125t-66.5 -150q-1 -46 22 -72t79 -26q41 0 73 11t53 21l25 -190
q-34 -21 -89 -40.5t-128 -19.5z" />
    <glyph glyph-name="uni01EB" unicode="&#x1eb;" horiz-adv-x="1696" 
d="M848 -31q-216 0 -377 99t-250 277t-89 416q0 239 89 418t250 278t377 99t377 -99t250 -278t89 -418q0 -238 -89 -416t-250 -277t-377 -99zM849 220q140 0 232 74t136.5 197t44.5 271q0 147 -44.5 270.5t-136.5 198.5t-232 75q-141 0 -233.5 -75t-137 -198.5t-44.5 -270.5
q0 -148 44.5 -271t137 -197t233.5 -74zM844 -591q-126 0 -209.5 67.5t-91.5 196.5q-5 76 25 153t101 146t188 122l177 -94q-91 -59 -158 -125t-67 -150q0 -46 22.5 -72t78.5 -26q42 0 73.5 11t52.5 21l26 -190q-35 -21 -89.5 -40.5t-128.5 -19.5z" />
    <glyph glyph-name="uni01EC" unicode="&#x1ec;" horiz-adv-x="2163" 
d="M2004 1024q0 -328 -120 -563.5t-328.5 -362t-473.5 -126.5q-266 0 -474.5 126.5t-328.5 362.5t-120 563q0 328 120 563.5t328.5 362t474.5 126.5q265 0 473.5 -126.5t328.5 -362t120 -563.5zM1698 1024q0 250 -80.5 421.5t-220 260t-315.5 88.5q-177 0 -316 -88.5
t-219.5 -260t-80.5 -421.5t80.5 -421.5t219.5 -260t316 -88.5q176 0 315.5 88.5t220 260t80.5 421.5zM1105 -596q-126 0 -209.5 68t-91.5 196q-5 76 25 153t100.5 146t188.5 123l177 -95q-91 -59 -158.5 -125t-66.5 -150q-1 -46 22 -72t79 -26q41 0 73 11t53 21l25 -190
q-34 -21 -89 -40.5t-128 -19.5zM1556 2560v-210h-949v210h949z" />
    <glyph glyph-name="uni01ED" unicode="&#x1ed;" horiz-adv-x="1696" 
d="M848 -31q-216 0 -377 99t-250 277t-89 416q0 239 89 418t250 278t377 99t377 -99t250 -278t89 -418q0 -238 -89 -416t-250 -277t-377 -99zM849 220q140 0 232 74t136.5 197t44.5 271q0 147 -44.5 270.5t-136.5 198.5t-232 75q-141 0 -233.5 -75t-137 -198.5t-44.5 -270.5
q0 -148 44.5 -271t137 -197t233.5 -74zM844 -591q-126 0 -209.5 67.5t-91.5 196.5q-5 76 25 153t101 146t188 122l177 -94q-91 -59 -158 -125t-67 -150q0 -46 22.5 -72t78.5 -26q42 0 73.5 11t52.5 21l26 -190q-35 -21 -89.5 -40.5t-128.5 -19.5zM1323 2048v-210h-949v210
h949z" />
    <glyph glyph-name="uni01EE" unicode="&#x1ee;" horiz-adv-x="1924" 
d="M124 108h314q8 -131 79 -231t184.5 -156t248.5 -56q161 0 278 77.5t180 211t63 300.5q0 189 -79.5 326.5t-219 213t-321.5 75.5h-175v243l646 650v16h-1083v270h1492v-224l-705 -713v-20q224 -12 394.5 -120.5t266.5 -292t96 -419.5q0 -188 -60 -346.5t-171 -275
t-264 -180t-339 -63.5q-226 0 -409.5 91t-294.5 252t-121 371zM757 2671l206 -268l205 268h271v-15l-352 -424h-249l-351 424v15h270z" />
    <glyph glyph-name="uni01EF" unicode="&#x1ef;" horiz-adv-x="1794" 
d="M165 22h313q10 -95 65.5 -161.5t145.5 -100.5t200 -34q118 0 211.5 40t147.5 118t54 192q0 102 -49 188t-154 138t-274 52h-183v234l492 568v15h-868v265h1272v-224l-548 -628v-16q142 -9 257.5 -59t197.5 -131.5t126 -186.5t44 -225q0 -177 -94 -314t-258.5 -214.5
t-376.5 -77.5q-197 0 -356.5 68t-257 194t-107.5 300zM691 2159l206 -268l205 268h271v-15l-352 -424h-249l-351 424v15h270z" />
    <glyph glyph-name="uni01F0" unicode="&#x1f0;" horiz-adv-x="701" 
d="M201 1536h299v-1636q0 -154 -55.5 -260t-164 -161t-267.5 -55h-30.5t-30.5 1v257h24.5h23.5q106 0 153.5 56.5t47.5 163.5v1634zM143 2159l206 -268l205 268h271v-15l-352 -424h-249l-351 424v15h270z" />
    <glyph glyph-name="uni01F1" unicode="&#x1f1;" horiz-adv-x="3831" 
d="M888 0h-663v2048h684q301 0 517 -122.5t331.5 -351t115.5 -547.5q0 -320 -116.5 -550t-336.5 -353.5t-532 -123.5zM534 270h337q234 0 389 88.5t232 257t77 411.5q0 241 -76.5 409t-227.5 255t-375 87h-356v-1508zM2204 0v206l1077 1576h-1086v266h1464v-206l-1077 -1576
h1086v-266h-1464z" />
    <glyph glyph-name="uni01F2" unicode="&#x1f2;" horiz-adv-x="3585" 
d="M888 0h-663v2048h684q301 0 517 -122.5t331.5 -351t115.5 -547.5q0 -320 -116.5 -550t-336.5 -353.5t-532 -123.5zM534 270h337q234 0 389 88.5t232 257t77 411.5q0 241 -76.5 409t-227.5 255t-375 87h-356v-1508zM2201 0v205l832 1057v14h-805v260h1178v-218l-800 -1044
v-14h828v-260h-1233z" />
    <glyph glyph-name="uni01F3" unicode="&#x1f3;" horiz-adv-x="3035" 
d="M776 -30q-186 0 -331.5 95.5t-228 273t-82.5 426.5t83.5 426t229.5 271t331 94q143 0 230.5 -47.5t136 -110.5t75.5 -111h18v761h299v-2048h-292v239h-25q-27 -49 -77.5 -112t-138.5 -110t-228 -47zM842 225q129 0 218.5 68.5t136 190.5t46.5 284q0 160 -46 280t-135 187
t-220 67q-135 0 -225 -70t-135.5 -191t-45.5 -273q0 -154 46 -277t136.5 -194.5t223.5 -71.5zM1651 0v205l832 1057v14h-805v260h1178v-218l-800 -1044v-14h828v-260h-1233z" />
    <glyph glyph-name="uni01F4" unicode="&#x1f4;" horiz-adv-x="2109" 
d="M1611 1401q-29 91 -77.5 163.5t-115.5 124t-152.5 78.5t-187.5 27q-173 0 -312 -89t-219.5 -260.5t-80.5 -419.5q0 -249 81 -421t222 -261t321 -89q167 0 291.5 68t193 192.5t68.5 293.5l80 -15h-586v255h805v-233q0 -258 -109.5 -447.5t-302 -292.5t-440.5 -103
q-278 0 -487.5 128t-326.5 363.5t-117 559.5q0 245 68 440t191.5 331.5t291 209t366.5 72.5q166 0 309.5 -49t256 -139t186.5 -213.5t100 -273.5h-317zM949 2253l234 461h315l-310 -461h-239z" />
    <glyph glyph-name="uni01F5" unicode="&#x1f5;" horiz-adv-x="1738" 
d="M845 -608q-183 0 -314.5 48t-214.5 127t-124 173l257 106q27 -44 72.5 -93.5t124 -84.5t202.5 -35q170 0 281 82.5t111 262.5v302h-19q-27 -49 -77.5 -109t-138.5 -104t-229 -44q-182 0 -327.5 85.5t-230 253t-84.5 412.5t83.5 420t229.5 268.5t331 93.5q143 0 231 -47.5
t137.5 -110.5t76.5 -111h22v249h293v-1570q0 -198 -92 -325t-248.5 -188t-352.5 -61zM842 271q129 0 218.5 60.5t136 174t46.5 272.5q0 155 -46 273t-135 184.5t-220 66.5q-135 0 -225 -69.5t-135.5 -188.5t-45.5 -266q0 -151 46 -265t136.5 -178t223.5 -64zM741 1741
l234 461h315l-310 -461h-239z" />
    <glyph glyph-name="uni01F6" unicode="&#x1f6;" horiz-adv-x="3145" 
d="M2254 -28q-210 0 -367 79t-244.5 233t-87.5 378v231h-1021v-893h-309v2048h309v-890h1021v890h310v-1386q0 -212 102.5 -314t286.5 -102q185 0 282.5 102t97.5 314v860h310v-860q0 -227 -86.5 -380.5t-242 -231.5t-361.5 -78z" />
    <glyph glyph-name="uni01F7" unicode="&#x1f7;" horiz-adv-x="1886" 
d="M519 2048v-2624h-337v2624h337zM353 -251v269q260 50 451 162t316.5 265t186.5 329t61 354v76q0 148 -28.5 260t-87.5 188t-149.5 114.5t-214.5 38.5q-152 0 -248 -53.5t-150 -148.5t-78 -221v545q81 69 196.5 109t276.5 40q245 0 429.5 -97t288 -291t103.5 -488v-72
q-1 -259 -99.5 -487.5t-279.5 -411.5t-428.5 -307t-545.5 -173z" />
    <glyph glyph-name="uni01F8" unicode="&#x1f8;" horiz-adv-x="2103" 
d="M1878 2048v-2048h-284l-1041 1502h-19v-1502h-309v2048h286l1042 -1504h19v1504h306zM936 2253l-309 461h315l233 -461h-239z" />
    <glyph glyph-name="uni01F9" unicode="&#x1f9;" horiz-adv-x="1682" 
d="M500 912v-912h-299v1536h287v-250h19q53 122 166.5 196t286.5 74q157 0 275 -65.5t183 -194.5t65 -319v-977h-299v941q0 167 -87 261.5t-239 94.5q-104 0 -184.5 -45t-127 -131.5t-46.5 -208.5zM725 1741l-309 461h315l233 -461h-239z" />
    <glyph glyph-name="uni01FA" unicode="&#x1fa;" horiz-adv-x="1971" 
d="M398 0h-328l737 2048h357l737 -2048h-328l-579 1676h-16zM453 802h1064v-260h-1064v260zM874 2829l200 261h286l-266 -261h-220zM986 2186q-123 0 -209.5 81.5t-86.5 197.5q0 77 39.5 140t107 101t149.5 38q122 0 209 -82t87 -197q0 -77 -40 -140.5t-107 -101t-149 -37.5
zM986 2331q60 0 100.5 39t40.5 95q0 55 -40.5 94.5t-100.5 39.5q-60 -1 -100.5 -40t-40.5 -94q0 -56 40.5 -95.5t100.5 -38.5z" />
    <glyph glyph-name="uni01FB" unicode="&#x1fb;" horiz-adv-x="1603" 
d="M648 -34q-146 0 -264 54.5t-186.5 158.5t-68.5 255q0 130 50 214t135 133t190 74t214 38q138 16 224 26.5t125 34.5t39 78v7q0 131 -73.5 203t-218.5 72q-151 0 -237.5 -66.5t-119.5 -147.5l-281 64q50 140 146.5 226.5t222.5 126t265 39.5q92 0 195.5 -21.5t194 -78.5
t148.5 -162.5t58 -273.5v-1020h-292v210h-12q-29 -58 -87 -114t-149 -93t-218 -37zM713 206q124 0 212.5 49t135 128.5t46.5 170.5v198q-16 -16 -61.5 -29.5t-103.5 -23t-113 -17t-92 -12.5q-87 -11 -158.5 -37t-114 -74.5t-42.5 -128.5q0 -111 82 -167.5t209 -56.5z
M714 2317l200 261h286l-266 -261h-220zM826 1674q-123 0 -209.5 81.5t-86.5 197.5q0 77 39.5 140t107 101t149.5 38q122 0 209 -82t87 -197q0 -77 -40 -140.5t-107 -101t-149 -37.5zM826 1819q60 0 100.5 39t40.5 95q0 55 -40.5 94.5t-100.5 39.5q-60 -1 -100.5 -40
t-40.5 -94q0 -56 40.5 -95.5t100.5 -38.5z" />
    <glyph glyph-name="uni01FC" unicode="&#x1fc;" horiz-adv-x="2826" 
d="M70 0l954 2048h1613v-266h-975v-624h908v-265h-908v-627h987v-266h-1296v1759h-147l-796 -1759h-340zM518 542v260h1000v-260h-1000zM1705 2253l234 461h315l-310 -461h-239z" />
    <glyph glyph-name="uni01FD" unicode="&#x1fd;" horiz-adv-x="2594" 
d="M1811 -31q-241 0 -407 114.5t-212 306.5l25 810q81 172 223 264t341 92q131 0 252.5 -43t218.5 -135t153.5 -238.5t56.5 -355.5v-106h-1212v224h918q0 118 -48 209.5t-134.5 144.5t-202.5 53q-126 0 -219 -61.5t-144 -160.5t-51 -213v-175q0 -154 55 -262t153 -164.5
t228 -56.5q86 0 155.5 24.5t120.5 73.5t78 121l283 -51q-34 -125 -121 -218.5t-217.5 -145t-292.5 -51.5zM713 206q124 0 212.5 49t135 128.5t46.5 170.5v198q-16 -16 -61.5 -29.5t-103.5 -23t-113 -17t-92 -12.5q-87 -11 -158.5 -37t-114 -74.5t-42.5 -128.5
q0 -111 82 -167.5t209 -56.5zM656 -34q-150 0 -269.5 54.5t-188.5 158.5t-69 255q0 130 50.5 214t135 133.5t190 74.5t213.5 37q138 16 224 27t125 34.5t39 77.5v7q0 130 -73.5 202.5t-218.5 72.5q-150 0 -237 -66t-120 -148l-281 64q50 140 146 226.5t223 126t267 39.5
q65 0 140.5 -12t149 -44.5t133.5 -93.5t92 -160l-78 -976h-23q-33 -86 -117.5 -155t-202 -109t-250.5 -40zM1152 1741l234 461h315l-310 -461h-239z" />
    <glyph glyph-name="uni01FE" unicode="&#x1fe;" horiz-adv-x="2163" 
d="M442 -89l-166 114l1438 2108l167 -114zM2004 1024q0 -328 -120 -563.5t-328.5 -362t-473.5 -126.5q-266 0 -474.5 126.5t-328.5 362.5t-120 563q0 328 120 563.5t328.5 362t474.5 126.5q265 0 473.5 -126.5t328.5 -362t120 -563.5zM1698 1024q0 250 -80.5 421.5t-220 260
t-315.5 88.5q-177 0 -316 -88.5t-219.5 -260t-80.5 -421.5t80.5 -421.5t219.5 -260t316 -88.5q176 0 315.5 88.5t220 260t80.5 421.5zM958 2253l234 461h315l-310 -461h-239z" />
    <glyph glyph-name="uni01FF" unicode="&#x1ff;" horiz-adv-x="1696" 
d="M390 -89l-167 114l1083 1588l167 -114zM848 -32q-216 0 -377 99t-250 277t-89 416q0 239 89 418t250 278t377 99t377 -99t250 -278t89 -418q0 -238 -89 -416t-250 -277t-377 -99zM849 219q140 0 232 74.5t136.5 197.5t44.5 270t-44.5 271t-136.5 199t-232 75
q-141 0 -233.5 -75t-137 -199t-44.5 -271t44.5 -270t137 -197.5t233.5 -74.5zM725 1740l234 461h315l-310 -461h-239z" />
    <glyph glyph-name="uni0200" unicode="&#x200;" horiz-adv-x="1971" 
d="M398 0h-328l737 2048h357l737 -2048h-328l-579 1676h-16zM453 802h1064v-260h-1064v260zM651 2253l-324 461h330l233 -461h-239zM1099 2253l-234 461h329l140 -461h-235z" />
    <glyph glyph-name="uni0201" unicode="&#x201;" horiz-adv-x="1603" 
d="M648 -34q-146 0 -264 54.5t-186.5 158.5t-68.5 255q0 130 50 214t135 133t190 74t214 38q138 16 224 26.5t125 34.5t39 78v7q0 131 -73.5 203t-218.5 72q-151 0 -237.5 -66.5t-119.5 -147.5l-281 64q50 140 146.5 226.5t222.5 126t265 39.5q92 0 195.5 -21.5t194 -78.5
t148.5 -162.5t58 -273.5v-1020h-292v210h-12q-29 -58 -87 -114t-149 -93t-218 -37zM713 206q124 0 212.5 49t135 128.5t46.5 170.5v198q-16 -16 -61.5 -29.5t-103.5 -23t-113 -17t-92 -12.5q-87 -11 -158.5 -37t-114 -74.5t-42.5 -128.5q0 -111 82 -167.5t209 -56.5z
M491 1741l-324 461h330l233 -461h-239zM939 1741l-234 461h329l140 -461h-235z" />
    <glyph glyph-name="uni0202" unicode="&#x202;" horiz-adv-x="1971" 
d="M398 0h-328l737 2048h357l737 -2048h-328l-579 1676h-16zM453 802h1064v-260h-1064v260zM542 2301q0 168 119 277t323 109t322 -109t118 -277h-245q0 77 -45.5 134.5t-149.5 57.5q-108 0 -152.5 -58.5t-43.5 -133.5h-246z" />
    <glyph glyph-name="uni0203" unicode="&#x203;" horiz-adv-x="1603" 
d="M648 -34q-146 0 -264 54.5t-186.5 158.5t-68.5 255q0 130 50 214t135 133t190 74t214 38q138 16 224 26.5t125 34.5t39 78v7q0 131 -73.5 203t-218.5 72q-151 0 -237.5 -66.5t-119.5 -147.5l-281 64q50 140 146.5 226.5t222.5 126t265 39.5q92 0 195.5 -21.5t194 -78.5
t148.5 -162.5t58 -273.5v-1020h-292v210h-12q-29 -58 -87 -114t-149 -93t-218 -37zM713 206q124 0 212.5 49t135 128.5t46.5 170.5v198q-16 -16 -61.5 -29.5t-103.5 -23t-113 -17t-92 -12.5q-87 -11 -158.5 -37t-114 -74.5t-42.5 -128.5q0 -111 82 -167.5t209 -56.5z
M382 1789q0 168 119 277t323 109t322 -109t118 -277h-245q0 77 -45.5 134.5t-149.5 57.5q-108 0 -152.5 -58.5t-43.5 -133.5h-246z" />
    <glyph glyph-name="uni0204" unicode="&#x204;" horiz-adv-x="1698" 
d="M225 0v2048h1284v-266h-975v-624h908v-265h-908v-627h987v-266h-1296zM531 2253l-324 461h330l233 -461h-239zM979 2253l-234 461h329l140 -461h-235z" />
    <glyph glyph-name="uni0205" unicode="&#x205;" horiz-adv-x="1654" 
d="M863 -31q-227 0 -390.5 97.5t-252 275t-88.5 416.5q0 236 88.5 416t248 281t373.5 101q130 0 252 -43t219 -135t153 -238.5t56 -355.5v-106h-1221v224h928q0 118 -48 209.5t-134.5 144.5t-202.5 53q-126 0 -219.5 -61.5t-144 -160t-50.5 -213.5v-175q0 -154 54.5 -262
t152.5 -164.5t229 -56.5q85 0 155 24.5t121 73.5t78 121l283 -51q-34 -125 -121.5 -218.5t-219 -145t-299.5 -51.5zM495 1741l-324 461h330l233 -461h-239zM943 1741l-234 461h329l140 -461h-235z" />
    <glyph glyph-name="uni0206" unicode="&#x206;" horiz-adv-x="1698" 
d="M225 0v2048h1284v-266h-975v-624h908v-265h-908v-627h987v-266h-1296zM423 2301q0 168 119 277t323 109t322 -109t118 -277h-245q0 77 -45.5 134.5t-149.5 57.5q-108 0 -152.5 -58.5t-43.5 -133.5h-246z" />
    <glyph glyph-name="uni0207" unicode="&#x207;" horiz-adv-x="1654" 
d="M863 -31q-227 0 -390.5 97.5t-252 275t-88.5 416.5q0 236 88.5 416t248 281t373.5 101q130 0 252 -43t219 -135t153 -238.5t56 -355.5v-106h-1221v224h928q0 118 -48 209.5t-134.5 144.5t-202.5 53q-126 0 -219.5 -61.5t-144 -160t-50.5 -213.5v-175q0 -154 54.5 -262
t152.5 -164.5t229 -56.5q85 0 155 24.5t121 73.5t78 121l283 -51q-34 -125 -121.5 -218.5t-219 -145t-299.5 -51.5zM387 1789q0 168 119 277t323 109t322 -109t118 -277h-245q0 77 -45.5 134.5t-149.5 57.5q-108 0 -152.5 -58.5t-43.5 -133.5h-246z" />
    <glyph glyph-name="uni0208" unicode="&#x208;" horiz-adv-x="759" 
d="M534 2048v-2048h-309v2048h309zM45 2253l-324 461h330l233 -461h-239zM493 2253l-234 461h329l140 -461h-235z" />
    <glyph glyph-name="uni0209" unicode="&#x209;" horiz-adv-x="701" 
d="M201 0v1536h299v-1536h-299zM17 1741l-324 461h330l233 -461h-239zM465 1741l-234 461h329l140 -461h-235z" />
    <glyph glyph-name="uni020A" unicode="&#x20a;" horiz-adv-x="759" 
d="M534 2048v-2048h-309v2048h309zM-63 2301q0 168 119 277t323 109t322 -109t118 -277h-245q0 77 -45.5 134.5t-149.5 57.5q-108 0 -152.5 -58.5t-43.5 -133.5h-246z" />
    <glyph glyph-name="uni020B" unicode="&#x20b;" horiz-adv-x="701" 
d="M201 0v1536h299v-1536h-299zM-91 1789q0 168 119 277t323 109t322 -109t118 -277h-245q0 77 -45.5 134.5t-149.5 57.5q-108 0 -152.5 -58.5t-43.5 -133.5h-246z" />
    <glyph glyph-name="uni020C" unicode="&#x20c;" horiz-adv-x="2163" 
d="M2004 1024q0 -328 -120 -563.5t-328.5 -362t-473.5 -126.5q-266 0 -474.5 126.5t-328.5 362.5t-120 563q0 328 120 563.5t328.5 362t474.5 126.5q265 0 473.5 -126.5t328.5 -362t120 -563.5zM1698 1024q0 250 -80.5 421.5t-220 260t-315.5 88.5q-177 0 -316 -88.5
t-219.5 -260t-80.5 -421.5t80.5 -421.5t219.5 -260t316 -88.5q176 0 315.5 88.5t220 260t80.5 421.5zM747 2253l-324 461h330l233 -461h-239zM1195 2253l-234 461h329l140 -461h-235z" />
    <glyph glyph-name="uni020D" unicode="&#x20d;" horiz-adv-x="1696" 
d="M848 -31q-216 0 -377 99t-250 277t-89 416q0 239 89 418t250 278t377 99t377 -99t250 -278t89 -418q0 -238 -89 -416t-250 -277t-377 -99zM849 220q140 0 232 74t136.5 197t44.5 271q0 147 -44.5 270.5t-136.5 198.5t-232 75q-141 0 -233.5 -75t-137 -198.5t-44.5 -270.5
q0 -148 44.5 -271t137 -197t233.5 -74zM513 1741l-324 461h330l233 -461h-239zM961 1741l-234 461h329l140 -461h-235z" />
    <glyph glyph-name="uni020E" unicode="&#x20e;" horiz-adv-x="2163" 
d="M2004 1024q0 -328 -120 -563.5t-328.5 -362t-473.5 -126.5q-266 0 -474.5 126.5t-328.5 362.5t-120 563q0 328 120 563.5t328.5 362t474.5 126.5q265 0 473.5 -126.5t328.5 -362t120 -563.5zM1698 1024q0 250 -80.5 421.5t-220 260t-315.5 88.5q-177 0 -316 -88.5
t-219.5 -260t-80.5 -421.5t80.5 -421.5t219.5 -260t316 -88.5q176 0 315.5 88.5t220 260t80.5 421.5zM638 2301q0 168 119 277t323 109t322 -109t118 -277h-245q0 77 -45.5 134.5t-149.5 57.5q-108 0 -152.5 -58.5t-43.5 -133.5h-246z" />
    <glyph glyph-name="uni020F" unicode="&#x20f;" horiz-adv-x="1696" 
d="M848 -31q-216 0 -377 99t-250 277t-89 416q0 239 89 418t250 278t377 99t377 -99t250 -278t89 -418q0 -238 -89 -416t-250 -277t-377 -99zM849 220q140 0 232 74t136.5 197t44.5 271q0 147 -44.5 270.5t-136.5 198.5t-232 75q-141 0 -233.5 -75t-137 -198.5t-44.5 -270.5
q0 -148 44.5 -271t137 -197t233.5 -74zM405 1789q0 168 119 277t323 109t322 -109t118 -277h-245q0 77 -45.5 134.5t-149.5 57.5q-108 0 -152.5 -58.5t-43.5 -133.5h-246z" />
    <glyph glyph-name="uni0210" unicode="&#x210;" horiz-adv-x="1816" 
d="M225 0v2048h730q238 0 395.5 -82t235.5 -226.5t78 -333.5q0 -188 -78.5 -330.5t-236 -221.5t-395.5 -79h-553v266h525q150 0 244.5 43t138.5 125t44 197q0 116 -44.5 201t-139 130.5t-247.5 45.5h-388v-1783h-309zM1236 924l506 -924h-352l-496 924h342zM561 2253
l-324 461h330l233 -461h-239zM1009 2253l-234 461h329l140 -461h-235z" />
    <glyph glyph-name="uni0211" unicode="&#x211;" horiz-adv-x="1082" 
d="M201 0v1536h289v-244h16q42 124 148.5 195.5t241.5 71.5q28 0 66.5 -2t60.5 -5v-286q-18 5 -64 11.5t-92 6.5q-106 0 -188.5 -44.5t-130.5 -123t-48 -178.5v-938h-299zM262 1741l-324 461h330l233 -461h-239zM710 1741l-234 461h329l140 -461h-235z" />
    <glyph glyph-name="uni0212" unicode="&#x212;" horiz-adv-x="1816" 
d="M225 0v2048h730q238 0 395.5 -82t235.5 -226.5t78 -333.5q0 -188 -78.5 -330.5t-236 -221.5t-395.5 -79h-553v266h525q150 0 244.5 43t138.5 125t44 197q0 116 -44.5 201t-139 130.5t-247.5 45.5h-388v-1783h-309zM1236 924l506 -924h-352l-496 924h342zM453 2301
q0 168 119 277t323 109t322 -109t118 -277h-245q0 77 -45.5 134.5t-149.5 57.5q-108 0 -152.5 -58.5t-43.5 -133.5h-246z" />
    <glyph glyph-name="uni0213" unicode="&#x213;" horiz-adv-x="1082" 
d="M201 0v1536h289v-244h16q42 124 148.5 195.5t241.5 71.5q28 0 66.5 -2t60.5 -5v-286q-18 5 -64 11.5t-92 6.5q-106 0 -188.5 -44.5t-130.5 -123t-48 -178.5v-938h-299zM154 1789q0 168 119 277t323 109t322 -109t118 -277h-245q0 77 -45.5 134.5t-149.5 57.5
q-108 0 -152.5 -58.5t-43.5 -133.5h-246z" />
    <glyph glyph-name="uni0214" unicode="&#x214;" horiz-adv-x="2077" 
d="M1542 2048h310v-1347q0 -215 -101 -380.5t-284 -260t-429 -94.5q-245 0 -428 94.5t-284 260t-101 380.5v1347h309v-1322q0 -139 61.5 -247t174.5 -169.5t268 -61.5q156 0 269.5 61.5t174 169.5t60.5 247v1322zM703 2253l-324 461h330l233 -461h-239zM1151 2253l-234 461
h329l140 -461h-235z" />
    <glyph glyph-name="uni0215" unicode="&#x215;" horiz-adv-x="1674" 
d="M1174 637v899h300v-1536h-294v266h-16q-53 -123 -169.5 -204.5t-289.5 -81.5q-148 0 -261.5 65.5t-178 194.5t-64.5 319v977h299v-941q0 -157 87 -250t226 -93q84 0 167.5 42t139 127t54.5 216zM504 1741l-324 461h330l233 -461h-239zM952 1741l-234 461h329l140 -461
h-235z" />
    <glyph glyph-name="uni0216" unicode="&#x216;" horiz-adv-x="2077" 
d="M1542 2048h310v-1347q0 -215 -101 -380.5t-284 -260t-429 -94.5q-245 0 -428 94.5t-284 260t-101 380.5v1347h309v-1322q0 -139 61.5 -247t174.5 -169.5t268 -61.5q156 0 269.5 61.5t174 169.5t60.5 247v1322zM595 2301q0 168 119 277t323 109t322 -109t118 -277h-245
q0 77 -45.5 134.5t-149.5 57.5q-108 0 -152.5 -58.5t-43.5 -133.5h-246z" />
    <glyph glyph-name="uni0217" unicode="&#x217;" horiz-adv-x="1674" 
d="M1174 637v899h300v-1536h-294v266h-16q-53 -123 -169.5 -204.5t-289.5 -81.5q-148 0 -261.5 65.5t-178 194.5t-64.5 319v977h299v-941q0 -157 87 -250t226 -93q84 0 167.5 42t139 127t54.5 216zM396 1789q0 168 119 277t323 109t322 -109t118 -277h-245q0 77 -45.5 134.5
t-149.5 57.5q-108 0 -152.5 -58.5t-43.5 -133.5h-246z" />
    <glyph glyph-name="uni0218" unicode="&#x218;" horiz-adv-x="1812" 
d="M1342 1510q-16 142 -132 220.5t-292 78.5q-126 0 -218 -39.5t-142.5 -108t-50.5 -155.5q0 -73 34.5 -126t91 -88.5t121.5 -59t125 -38.5l200 -52q98 -24 201 -65t191 -108t142.5 -166t54.5 -237q0 -174 -89.5 -309t-259 -213t-409.5 -78q-230 0 -398 73t-263 207.5
t-105 319.5h310q9 -111 72.5 -184.5t163 -109t218.5 -35.5q131 0 233.5 41.5t161.5 116t59 174.5q0 91 -51.5 149t-139 96t-197.5 67l-242 66q-246 67 -389.5 197t-143.5 344q0 177 96 309t260 205.5t370 73.5q208 0 367.5 -73t251.5 -200.5t96 -292.5h-298zM648 -701
l116 510h293l-187 -510h-222z" />
    <glyph glyph-name="uni0219" unicode="&#x219;" horiz-adv-x="1509" 
d="M1352 1161l-271 -48q-17 52 -53.5 99t-98.5 77t-155 30q-127 0 -212 -56.5t-85 -145.5q0 -77 57 -124t184 -77l244 -56q212 -49 316 -151t104 -265q0 -138 -79.5 -245.5t-221 -168.5t-327.5 -61q-258 0 -421 110.5t-200 314.5l289 44q27 -113 111 -170.5t219 -57.5
q147 0 235 61.5t88 150.5q0 72 -53.5 121t-163.5 74l-260 57q-215 49 -317.5 156t-102.5 271q0 136 76 238t210 159.5t307 57.5q249 0 392 -107.5t189 -287.5zM506 -672l116 510h293l-187 -510h-222z" />
    <glyph glyph-name="uni021A" unicode="&#x21a;" horiz-adv-x="1833" 
d="M124 1782v266h1585v-266h-639v-1782h-308v1782h-638zM654 -672l116 510h293l-187 -510h-222z" />
    <glyph glyph-name="uni021B" unicode="&#x21b;" horiz-adv-x="1047" 
d="M918 1536v-240h-839v240h839zM304 1904h299v-1453q0 -87 26 -130.5t67.5 -59t90.5 -15.5q36 0 63 5t42 8l54 -247q-26 -10 -74 -20.5t-120 -11.5q-118 -2 -220 42t-165 136t-63 231v1515zM323 -672l116 510h293l-187 -510h-222z" />
    <glyph glyph-name="uni021C" unicode="&#x21c;" horiz-adv-x="1813" 
d="M311 455v247q244 73 424.5 148.5t300 163t178.5 193.5t59 241q0 174 -96.5 265.5t-279.5 91.5q-117 0 -203.5 -36.5t-133.5 -101.5t-47 -152h-335q0 170 92.5 296t255 195.5t371.5 69.5t369 -67.5t250 -199.5t90 -325q0 -186 -91 -345.5t-261 -289t-408.5 -228.5
t-534.5 -166zM1078 852l123 188q135 -30 233 -103.5t151 -192.5t53 -287q0 -238 -98 -414t-276 -300.5t-420.5 -207.5t-532.5 -135v267q234 46 417.5 112t310.5 160t194 226t67 310q0 166 -50.5 255.5t-171.5 121.5z" />
    <glyph glyph-name="uni021D" unicode="&#x21d;" horiz-adv-x="1554" 
d="M313 263v237q237 62 395 146t238 189t80 230q0 117 -63.5 178.5t-186.5 61.5q-84 0 -145.5 -29t-95.5 -82.5t-34 -126.5h-322q0 151 74 260.5t210.5 169t322.5 59.5q264 0 414 -124.5t150 -345.5q0 -188 -124 -349.5t-355.5 -282.5t-557.5 -191zM872 598l130 152
q185 -46 280.5 -173t95.5 -328q0 -342 -266.5 -554.5t-798.5 -294.5v247q268 69 430.5 153.5t236 198.5t73.5 269q0 130 -49 217.5t-132 112.5z" />
    <glyph glyph-name="uni021E" unicode="&#x21e;" horiz-adv-x="2090" 
d="M225 0v2048h309v-890h1021v890h310v-2048h-310v893h-1021v-893h-309zM847 2674l206 -268l205 268h271v-15l-352 -424h-249l-351 424v15h270z" />
    <glyph glyph-name="uni021F" unicode="&#x21f;" horiz-adv-x="1695" 
d="M500 912v-912h-299v2048h295v-762h19q54 124 165 197t290 73q158 0 276.5 -65t184 -193.5t65.5 -320.5v-977h-299v941q0 169 -87 262.5t-242 93.5q-106 0 -189.5 -45t-131 -131.5t-47.5 -208.5zM145 2671l206 -268l205 268h271v-15l-352 -424h-249l-351 424v15h270z" />
    <glyph glyph-name="uni0220" unicode="&#x220;" horiz-adv-x="1814" 
d="M1646 -572h-326v1991q0 137 -49.5 223.5t-144.5 128t-231 41.5q-154 0 -290 -56t-245 -156v274q70 60 159 105.5t193 71t218 25.5q191 0 353.5 -74.5t262.5 -220.5t100 -362v-1991zM494 2048v-2048h-321v2048h321z" />
    <glyph glyph-name="uni0221" unicode="&#x221;" horiz-adv-x="2023" 
d="M1237 338h300v-503q0 -95 52 -142.5t121 -47.5q67 0 108.5 40.5t41.5 103.5q0 59 -36.5 98.5t-103.5 46.5q-69 9 -133.5 -23t-124.5 -85l-388 -364l-164 189l338 319q103 92 224 140t244 48q192 0 310.5 -102.5t118.5 -269.5q0 -109 -52 -190.5t-150 -126.5t-236 -45
q-172 0 -275.5 66.5t-149 171t-45.5 220.5v456zM778 -30q-187 0 -332 95.5t-228 273t-83 426.5t84 426t229.5 271t331.5 94q143 0 230 -47.5t136 -110.5t76 -111h17v761h299v-2048h-292v239h-24q-28 -49 -78 -112t-138 -110t-228 -47zM844 225q129 0 218 68.5t136 190.5
t47 284q0 160 -46 280t-135.5 187t-219.5 67q-135 0 -225.5 -70t-135.5 -191t-45 -273q0 -154 46 -277t136 -194.5t224 -71.5z" />
    <glyph glyph-name="uni0222" unicode="&#x222;" horiz-adv-x="1814" 
d="M892 1232h31q222 0 395 -70.5t272.5 -208t99.5 -339.5q0 -212 -100.5 -355t-273.5 -215t-393 -72h-31q-220 0 -394 72t-274.5 214t-100.5 352q0 204 100 342.5t273.5 209t395.5 70.5zM923 985h-31q-196 0 -314 -93.5t-118 -281.5t118 -276.5t314 -88.5h31q196 0 313 88.5
t118 280.5q-1 186 -118 278.5t-313 92.5zM882 1260h50q119 0 215 20t152 81.5t56 186.5q0 117 -57 180.5t-172 91.5v256q163 -5 291 -65t201.5 -175.5t73.5 -287.5q0 -201 -102.5 -318t-275 -166.5t-382.5 -49.5h-50q-157 0 -295 27t-242 89t-163 164.5t-59 253.5
q0 172 74 287.5t201.5 175t289.5 65.5v-256q-115 -28 -171.5 -91.5t-56.5 -180.5q0 -125 56.5 -187t152 -81.5t213.5 -19.5z" />
    <glyph glyph-name="uni0223" unicode="&#x223;" horiz-adv-x="1813" 
d="M891 1222h31q217 0 389.5 -67t272.5 -202.5t100 -342.5q0 -213 -100 -355t-272 -212.5t-390 -70.5h-31q-217 0 -389.5 70.5t-272.5 212t-100 352.5q0 208 100 344.5t272.5 203.5t389.5 67zM922 983h-31q-199 0 -318 -95t-119 -281q0 -185 119 -280.5t318 -95.5h31
q198 0 317.5 96t119.5 283q0 183 -119.5 278t-317.5 95zM931 1242q121 0 218.5 28.5t154.5 100t57 199.5q0 136 -62 210t-173 117v243q158 -4 284 -70.5t200 -191.5t74 -306q0 -209 -102.5 -333t-274 -178t-376.5 -54h-49q-205 0 -376 54t-274 178t-103 333q0 180 73.5 305
t200 192t284.5 71v-243q-111 -43 -172 -117t-61 -210q0 -128 57.5 -199.5t154.5 -100t216 -28.5h49z" />
    <glyph glyph-name="uni0224" unicode="&#x224;" horiz-adv-x="1799" 
d="M163 1782v266h1464v-206l-1080 -1576h651q216 0 337.5 -122t121.5 -323v-141h-268v86q0 60 -16.5 113.5t-58 87t-116.5 33.5h-1026v206l1080 1576h-1089z" />
    <glyph glyph-name="uni0225" unicode="&#x225;" horiz-adv-x="1546" 
d="M1178 -338v85q0 64 -15 121.5t-58.5 94.5t-126.5 37h-806v217l821 1060h-825v259h1203v-208l-817 -1069h424q221 0 340.5 -125t119.5 -320v-152h-260z" />
    <glyph glyph-name="uni0226" unicode="&#x226;" horiz-adv-x="1971" 
d="M398 0h-328l737 2048h357l737 -2048h-328l-579 1676h-16zM453 802h1064v-260h-1064v260zM986 2285q-78 0 -133.5 52.5t-55.5 125.5q0 74 55.5 126.5t133.5 52.5t133.5 -52.5t55.5 -126.5q0 -73 -55.5 -125.5t-133.5 -52.5z" />
    <glyph glyph-name="uni0227" unicode="&#x227;" horiz-adv-x="1603" 
d="M648 -34q-146 0 -264 54.5t-186.5 158.5t-68.5 255q0 130 50 214t135 133t190 74t214 38q138 16 224 26.5t125 34.5t39 78v7q0 131 -73.5 203t-218.5 72q-151 0 -237.5 -66.5t-119.5 -147.5l-281 64q50 140 146.5 226.5t222.5 126t265 39.5q92 0 195.5 -21.5t194 -78.5
t148.5 -162.5t58 -273.5v-1020h-292v210h-12q-29 -58 -87 -114t-149 -93t-218 -37zM713 206q124 0 212.5 49t135 128.5t46.5 170.5v198q-16 -16 -61.5 -29.5t-103.5 -23t-113 -17t-92 -12.5q-87 -11 -158.5 -37t-114 -74.5t-42.5 -128.5q0 -111 82 -167.5t209 -56.5z
M826 1773q-78 0 -133.5 52.5t-55.5 125.5q0 74 55.5 126.5t133.5 52.5t133.5 -52.5t55.5 -126.5q0 -73 -55.5 -125.5t-133.5 -52.5z" />
    <glyph glyph-name="uni0228" unicode="&#x228;" horiz-adv-x="1698" 
d="M225 0v2048h1284v-266h-975v-624h908v-265h-908v-627h987v-266h-1296zM752 8h196l-16 -82q87 -14 152 -70t65 -169q1 -135 -116.5 -219t-339.5 -84l-6 167q104 0 168.5 30t65.5 97t-49.5 94t-160.5 38z" />
    <glyph glyph-name="uni0229" unicode="&#x229;" horiz-adv-x="1654" 
d="M863 -31q-227 0 -390.5 97.5t-252 275t-88.5 416.5q0 236 88.5 416t248 281t373.5 101q130 0 252 -43t219 -135t153 -238.5t56 -355.5v-106h-1221v224h928q0 118 -48 209.5t-134.5 144.5t-202.5 53q-126 0 -219.5 -61.5t-144 -160t-50.5 -213.5v-175q0 -154 54.5 -262
t152.5 -164.5t229 -56.5q85 0 155 24.5t121 73.5t78 121l283 -51q-34 -125 -121.5 -218.5t-219 -145t-299.5 -51.5zM732 8h196l-16 -82q87 -14 152 -70t65 -169q1 -135 -116.5 -219t-339.5 -84l-6 167q104 0 168.5 30t65.5 97t-49.5 94t-160.5 38z" />
    <glyph glyph-name="uni022A" unicode="&#x22a;" horiz-adv-x="2163" 
d="M2004 1024q0 -328 -120 -563.5t-328.5 -362t-473.5 -126.5q-266 0 -474.5 126.5t-328.5 362.5t-120 563q0 328 120 563.5t328.5 362t474.5 126.5q265 0 473.5 -126.5t328.5 -362t120 -563.5zM1698 1024q0 250 -80.5 421.5t-220 260t-315.5 88.5q-177 0 -316 -88.5
t-219.5 -260t-80.5 -421.5t80.5 -421.5t219.5 -260t316 -88.5q176 0 315.5 88.5t220 260t80.5 421.5zM788 2289q-71 0 -124 52.5t-53 121.5q0 75 53 125t124 50q75 0 125.5 -50t50.5 -125q0 -69 -50.5 -121.5t-125.5 -52.5zM1376 2289q-71 0 -124 52.5t-53 121.5
q0 75 53 125t124 50q75 0 125.5 -50t50.5 -125q0 -69 -50.5 -121.5t-125.5 -52.5zM1556 3072v-210h-949v210h949z" />
    <glyph glyph-name="uni022B" unicode="&#x22b;" horiz-adv-x="1696" 
d="M848 -31q-216 0 -377 99t-250 277t-89 416q0 239 89 418t250 278t377 99t377 -99t250 -278t89 -418q0 -238 -89 -416t-250 -277t-377 -99zM849 220q140 0 232 74t136.5 197t44.5 271q0 147 -44.5 270.5t-136.5 198.5t-232 75q-141 0 -233.5 -75t-137 -198.5t-44.5 -270.5
q0 -148 44.5 -271t137 -197t233.5 -74zM555 1777q-71 0 -124 52.5t-53 121.5q0 75 53 125t124 50q75 0 125.5 -50t50.5 -125q0 -69 -50.5 -121.5t-125.5 -52.5zM1143 1777q-71 0 -124 52.5t-53 121.5q0 75 53 125t124 50q75 0 125.5 -50t50.5 -125q0 -69 -50.5 -121.5
t-125.5 -52.5zM1323 2560v-210h-949v210h949z" />
    <glyph glyph-name="uni022C" unicode="&#x22c;" horiz-adv-x="2163" 
d="M2004 1024q0 -328 -120 -563.5t-328.5 -362t-473.5 -126.5q-266 0 -474.5 126.5t-328.5 362.5t-120 563q0 328 120 563.5t328.5 362t474.5 126.5q265 0 473.5 -126.5t328.5 -362t120 -563.5zM1698 1024q0 250 -80.5 421.5t-220 260t-315.5 88.5q-177 0 -316 -88.5
t-219.5 -260t-80.5 -421.5t80.5 -421.5t219.5 -260t316 -88.5q176 0 315.5 88.5t220 260t80.5 421.5zM1338 2550l139 -37q-1 -101 -66 -176t-167 -75q-75 0 -122 25t-89 50t-103 25q-43 0 -72.5 -37.5t-29.5 -85.5l-138 38q0 98 64 176t164 78q62 0 111 -24t97 -48.5
t106 -24.5q42 0 74 33t32 83zM1559 2905v-217h-953v217h953z" />
    <glyph glyph-name="uni022D" unicode="&#x22d;" horiz-adv-x="1696" 
d="M848 -31q-216 0 -377 99t-250 277t-89 416q0 239 89 418t250 278t377 99t377 -99t250 -278t89 -418q0 -238 -89 -416t-250 -277t-377 -99zM849 220q140 0 232 74t136.5 197t44.5 271q0 147 -44.5 270.5t-136.5 198.5t-232 75q-141 0 -233.5 -75t-137 -198.5t-44.5 -270.5
q0 -148 44.5 -271t137 -197t233.5 -74zM1153 2112l204 -15q0 -103 -41.5 -182t-112 -123.5t-157.5 -44.5q-68 0 -114.5 19t-84.5 43.5t-78.5 43.5t-97.5 19q-52 0 -89 -42t-38 -102l-200 9q0 100 40.5 180.5t110 127.5t156.5 47q57 0 102 -18.5t87 -43t85.5 -43.5t97.5 -19
t92 40.5t38 103.5zM1332 2480v-217h-953v217h953z" />
    <glyph glyph-name="uni022E" unicode="&#x22e;" horiz-adv-x="2163" 
d="M2004 1024q0 -328 -120 -563.5t-328.5 -362t-473.5 -126.5q-266 0 -474.5 126.5t-328.5 362.5t-120 563q0 328 120 563.5t328.5 362t474.5 126.5q265 0 473.5 -126.5t328.5 -362t120 -563.5zM1698 1024q0 250 -80.5 421.5t-220 260t-315.5 88.5q-177 0 -316 -88.5
t-219.5 -260t-80.5 -421.5t80.5 -421.5t219.5 -260t316 -88.5q176 0 315.5 88.5t220 260t80.5 421.5zM1082 2285q-78 0 -133.5 52.5t-55.5 125.5q0 74 55.5 126.5t133.5 52.5t133.5 -52.5t55.5 -126.5q0 -73 -55.5 -125.5t-133.5 -52.5z" />
    <glyph glyph-name="uni022F" unicode="&#x22f;" horiz-adv-x="1696" 
d="M848 -31q-216 0 -377 99t-250 277t-89 416q0 239 89 418t250 278t377 99t377 -99t250 -278t89 -418q0 -238 -89 -416t-250 -277t-377 -99zM849 220q140 0 232 74t136.5 197t44.5 271q0 147 -44.5 270.5t-136.5 198.5t-232 75q-141 0 -233.5 -75t-137 -198.5t-44.5 -270.5
q0 -148 44.5 -271t137 -197t233.5 -74zM848 1773q-78 0 -133.5 52.5t-55.5 125.5q0 74 55.5 126.5t133.5 52.5t133.5 -52.5t55.5 -126.5q0 -73 -55.5 -125.5t-133.5 -52.5z" />
    <glyph glyph-name="uni0230" unicode="&#x230;" horiz-adv-x="2163" 
d="M2004 1024q0 -328 -120 -563.5t-328.5 -362t-473.5 -126.5q-266 0 -474.5 126.5t-328.5 362.5t-120 563q0 328 120 563.5t328.5 362t474.5 126.5q265 0 473.5 -126.5t328.5 -362t120 -563.5zM1698 1024q0 250 -80.5 421.5t-220 260t-315.5 88.5q-177 0 -316 -88.5
t-219.5 -260t-80.5 -421.5t80.5 -421.5t219.5 -260t316 -88.5q176 0 315.5 88.5t220 260t80.5 421.5zM1082 2289q-76 0 -130 51t-54 123t54 123t130 51q75 0 129 -51t54 -123t-54 -123t-129 -51zM1556 3072v-210h-949v210h949z" />
    <glyph glyph-name="uni0231" unicode="&#x231;" horiz-adv-x="1696" 
d="M848 -31q-216 0 -377 99t-250 277t-89 416q0 239 89 418t250 278t377 99t377 -99t250 -278t89 -418q0 -238 -89 -416t-250 -277t-377 -99zM849 220q140 0 232 74t136.5 197t44.5 271q0 147 -44.5 270.5t-136.5 198.5t-232 75q-141 0 -233.5 -75t-137 -198.5t-44.5 -270.5
q0 -148 44.5 -271t137 -197t233.5 -74zM1325 2555v-211h-949v211h949zM851 1771q-75 0 -129 51.5t-54 123.5t54 123t129 51t129 -51t54 -123t-54 -123.5t-129 -51.5z" />
    <glyph glyph-name="uni0232" unicode="&#x232;" horiz-adv-x="1928" 
d="M67 2048h351l535 -931h22l535 931h351l-743 -1244v-804h-308v804zM1439 2560v-210h-949v210h949z" />
    <glyph glyph-name="uni0233" unicode="&#x233;" horiz-adv-x="1595" 
d="M390 -576q-67 0 -122 10.5t-82 22.5l72 245q82 -22 146 -19t113.5 48t87.5 147l37 102l-562 1556h320l389 -1192h16l389 1192h321l-633 -1741q-44 -120 -112 -203.5t-162 -125.5t-218 -42zM1271 2048v-210h-949v210h949z" />
    <glyph glyph-name="uni0234" unicode="&#x234;" horiz-adv-x="1038" 
d="M193 354h299v-532q0 -70 49.5 -117.5t122.5 -47.5q63 0 102 41.5t40 103.5q-1 60 -42.5 98t-111.5 38q-102 0 -179.5 -54.5t-162.5 -131.5l-280 -274l-172 184l283 276q60 54 128 97t139.5 75t142.5 49.5t136 17.5q115 0 204 -48t140 -132t51 -192q0 -107 -51.5 -193.5
t-145.5 -137t-223 -50.5q-110 0 -197.5 37t-148 102.5t-92 151.5t-31.5 183v456zM492 2048v-2048h-299v2048h299z" />
    <glyph glyph-name="uni0235" unicode="&#x235;" horiz-adv-x="2187" 
d="M1184 144h299v-122q0 -65 50 -110t119 -45q65 0 105 42t40 107q0 67 -44 104.5t-115 37.5q-43 1 -88 -12.5t-88 -37t-84.5 -57.5t-79.5 -75l-264 -282l-172 167l282 295q62 69 126.5 113.5t130.5 70.5t133.5 37t135.5 11q115 0 206.5 -47.5t144.5 -133t53 -198.5
t-53.5 -198.5t-151.5 -134t-233 -48.5q-112 0 -197 35t-142 96.5t-85 141.5t-28 169v74zM500 912v-912h-299v1536h287v-250h19q53 122 166.5 196t286.5 74q157 0 275 -65.5t183 -194.5t65 -319v-977h-299v941q0 167 -87 261.5t-239 94.5q-104 0 -184.5 -45t-127 -131.5
t-46.5 -208.5z" />
    <glyph glyph-name="uni0236" unicode="&#x236;" horiz-adv-x="1406" 
d="M397 1904h299v-1548q0 -64 49 -109.5t121 -45.5q61 0 105.5 36.5t44.5 108.5q0 55 -35 95.5t-125 40.5q-42 0 -99 -25.5t-130.5 -80t-168.5 -143.5t-215 -216l-164 182q173 183 308 298t255.5 169.5t248.5 54.5q195 0 298.5 -104t103.5 -259q0 -79 -27.5 -150
t-82.5 -124.5t-136.5 -84.5t-189.5 -31q-111 0 -196.5 34.5t-144.5 97t-89 146t-30 180.5v1478zM1011 1536v-240h-839v240h839z" />
    <glyph glyph-name="uni0237" unicode="&#x237;" horiz-adv-x="701" 
d="M201 1536h299v-1636q0 -154 -55.5 -260t-164 -161t-267.5 -55h-30.5t-30.5 1v257h24.5h23.5q106 0 153.5 56.5t47.5 163.5v1634z" />
    <glyph glyph-name="uni0238" unicode="&#x238;" horiz-adv-x="2587" 
d="M2439 776v-28q0 -226 -72.5 -401t-207.5 -275t-321 -100q-135 0 -238 53t-175.5 151.5t-116 237.5t-60.5 311v72q22 233 93 403.5t195 263t306 92.5q186 0 320 -96.5t205.5 -272t71.5 -411.5zM2114 748v28q0 146 -34 263t-111.5 185t-205.5 68q-167 0 -256.5 -115.5
t-113.5 -287.5v-255q22 -114 67 -204t120.5 -141.5t187.5 -51.5q130 0 205.5 68t108 184t32.5 259zM1131 302v1746h325v-2048h-295zM148 748v28q0 236 72 411.5t205.5 272t319.5 96.5q182 0 306.5 -92.5t195 -263t92.5 -403.5v-72q-17 -172 -60.5 -311t-116 -237.5
t-175.5 -151.5t-238 -53q-186 0 -321 100t-207.5 275t-72.5 401zM473 776v-28q0 -143 32.5 -259t108.5 -184t205 -68q113 0 188 51.5t120 141.5t67 204v255q-16 115 -60.5 206t-121 144t-188.5 53q-128 0 -205 -68t-111.5 -185t-34.5 -263z" />
    <glyph glyph-name="uni0239" unicode="&#x239;" horiz-adv-x="2587" 
d="M1131 -572v1816l33 292h266l26 -284v-1824h-325zM148 748v28q0 236 72 411.5t205.5 272t319.5 96.5q182 0 306.5 -92.5t195 -263t92.5 -403.5v-72q-17 -172 -60.5 -311t-116 -237.5t-175.5 -151.5t-238 -53q-186 0 -321 100t-207.5 275t-72.5 401zM473 776v-28
q0 -143 32.5 -259t108.5 -184t205 -68q113 0 188 51.5t120 141.5t67 204v255q-16 115 -60.5 206t-121 144t-188.5 53q-128 0 -205 -68t-111.5 -185t-34.5 -263zM2439 776v-28q0 -226 -72.5 -401t-207.5 -275t-321 -100q-135 0 -238 53t-175.5 151.5t-116 237.5t-60.5 311v72
q22 233 93 403.5t195 263t306 92.5q186 0 320 -96.5t205.5 -272t71.5 -411.5zM2114 748v28q0 146 -34 263t-111.5 185t-205.5 68q-167 0 -256.5 -115.5t-113.5 -287.5v-255q22 -114 67 -204t120.5 -141.5t187.5 -51.5q130 0 205.5 68t108 184t32.5 259z" />
    <glyph glyph-name="uni023A" unicode="&#x23a;" horiz-adv-x="1971" 
d="M1621 2308l-885 -2568h-239l885 2568h239zM398 0h-328l737 2048h357l737 -2048h-328l-579 1676h-16zM453 802h1064v-260h-1064v260z" />
    <glyph glyph-name="uni023B" unicode="&#x23b;" horiz-adv-x="2071" 
d="M482 -260l885 2568h239l-884 -2568h-240zM1926 1382h-312q-18 100 -67 176t-120 129t-158.5 80t-185.5 27q-177 0 -316.5 -89t-220 -261t-80.5 -420q0 -250 80.5 -422t220.5 -260t315 -88q97 0 184.5 26.5t158.5 78.5t120.5 127.5t68.5 173.5l312 -1
q-25 -151 -96.5 -277.5t-183 -218t-254.5 -141.5t-312 -50q-266 0 -474 126.5t-327.5 362.5t-119.5 563q0 328 120 563.5t328 362t473 126.5q163 0 304.5 -46.5t254.5 -136t187 -218t100 -293.5z" />
    <glyph glyph-name="uni023C" unicode="&#x23c;" horiz-adv-x="1601" 
d="M1421 2048l-999 -2624h-210l1002 2624h207zM848 -31q-223 0 -383.5 101.5t-246.5 280.5t-86 410q0 234 88 413.5t248 280.5t377 101q175 0 312 -64.5t221.5 -180.5t100.5 -271h-291q-24 108 -109.5 186t-228.5 78q-125 0 -218.5 -65.5t-145.5 -186t-52 -284.5
q0 -168 51 -290t144.5 -189t220.5 -67q85 0 154.5 31.5t117 90.5t66.5 142h291q-16 -149 -97 -266t-216.5 -184t-317.5 -67z" />
    <glyph glyph-name="uni023D" unicode="&#x23d;" horiz-adv-x="1589" 
d="M225 0v2048h309v-1782h928v-266h-1237zM-81 960v207h919v-207h-919z" />
    <glyph glyph-name="uni023E" unicode="&#x23e;" horiz-adv-x="1833" 
d="M383 -260l885 2568h239l-885 -2568h-239zM124 1782v266h1585v-266h-639v-1782h-308v1782h-638z" />
    <glyph glyph-name="uni023F" unicode="&#x23f;" horiz-adv-x="1510" 
d="M402 377q126 -230 205 -373t129.5 -218.5t88.5 -103.5t80 -28q64 0 119 34t92 67l104 -181q-53 -49 -137.5 -99.5t-182.5 -50.5q-100 0 -177 43.5t-139 121t-120 177.5l-278 482zM1352 1161l-271 -48q-17 52 -53.5 99t-98.5 77t-155 30q-127 0 -212 -56.5t-85 -145.5
q0 -77 57 -124t184 -77l244 -56q212 -49 316 -151t104 -265q0 -138 -79.5 -245.5t-221 -168.5t-327.5 -61q-258 0 -421 110.5t-200 314.5l289 44q27 -113 111 -170.5t219 -57.5q147 0 235 61.5t88 150.5q0 72 -53.5 121t-163.5 74l-260 57q-215 49 -317.5 156t-102.5 271
q0 136 76 238t210 159.5t307 57.5q249 0 392 -107.5t189 -287.5z" />
    <glyph glyph-name="uni0240" unicode="&#x240;" horiz-adv-x="1606" 
d="M496 259h107q125 0 216.5 -41t158.5 -106t119 -138.5t96.5 -138.5t90.5 -106t103 -41q40 0 76 12.5t66.5 32t54.5 41.5l108 -200q-53 -51 -135.5 -100.5t-192.5 -49.5q-97 0 -166 41.5t-122.5 107t-103.5 139.5t-107 139.5t-132.5 107t-182.5 41.5h-54v259zM554 259v-259
h-382v217l821 1060h-825v259h1203v-208z" />
    <glyph glyph-name="uni0241" unicode="&#x241;" horiz-adv-x="1554" 
d="M654 651h90q142 0 218.5 66.5t106 173.5t29.5 228v208q0 84 -15.5 166.5t-54 151.5t-107.5 110.5t-177 41.5q-141 0 -221.5 -83t-86.5 -214h-318q5 168 85 298t218.5 204t320.5 74q230 0 384 -102.5t231.5 -273t77.5 -373.5v-208q0 -202 -77 -372t-231.5 -272
t-385.5 -102h-87v278zM927 651v-651h-338v651h338z" />
    <glyph glyph-name="uni0242" unicode="&#x242;" horiz-adv-x="1554" 
d="M187 958q0 190 76 323.5t211.5 204t312.5 70.5q179 0 309 -67.5t200.5 -197t70.5 -317.5q0 -156 -56.5 -275.5t-179.5 -187t-321 -67.5h-114v191h70q152 0 215.5 88.5t64.5 237.5q-1 148 -60.5 242.5t-199.5 94.5q-134 0 -204 -90.5t-70 -249.5h-325zM629 635h325v-635
h-325v635z" />
    <glyph glyph-name="uni0243" unicode="&#x243;" horiz-adv-x="2005" 
d="M388 0v2048h750q218 0 361 -71.5t214 -193t71 -273.5q0 -128 -47 -215.5t-125.5 -140t-172.5 -76.5v-20q102 -5 199.5 -65.5t161.5 -171.5t64 -270q0 -157 -73.5 -281.5t-226.5 -197t-391 -72.5h-785zM697 265h446q222 0 318 86t96 215q0 97 -49 178t-139.5 129
t-214.5 48h-457v-656zM697 1162h414q104 0 187.5 40t133 112.5t49.5 171.5q0 127 -89 213t-273 86h-422v-623zM79 489v207h919v-207h-919z" />
    <glyph glyph-name="uni0244" unicode="&#x244;" horiz-adv-x="2106" 
d="M2115 1180v-192h-2125v192h2125zM1559 2048h310v-1347q0 -215 -101 -380.5t-284 -260t-429 -94.5t-429 94.5t-283.5 260t-100.5 380.5v1347h309v-1322q0 -139 61.5 -247t174 -169.5t268.5 -61.5t269.5 61.5t174 169.5t60.5 247v1322z" />
    <glyph glyph-name="uni0245" unicode="&#x245;" horiz-adv-x="2070" 
d="M1558 0l-546 1688l-72 360h254l734 -2048h-370zM1055 1688l-541 -1688h-369l731 2048h254z" />
    <glyph glyph-name="uni0246" unicode="&#x246;" horiz-adv-x="1698" 
d="M1412 2308l-740 -2568h-228l740 2568h228zM225 0v2048h1284v-266h-975v-624h908v-265h-908v-627h987v-266h-1296z" />
    <glyph glyph-name="uni0247" unicode="&#x247;" horiz-adv-x="1658" 
d="M1421 2048l-999 -2624h-210l1002 2624h207zM863 -31q-227 0 -390.5 97.5t-252 275t-88.5 416.5q0 236 88.5 416t248 281t373.5 101q130 0 252 -43t219 -135t153 -238.5t56 -355.5v-106h-1221v224h928q0 118 -48 209.5t-134.5 144.5t-202.5 53q-126 0 -219.5 -61.5
t-144 -160t-50.5 -213.5v-175q0 -154 54.5 -262t152.5 -164.5t229 -56.5q85 0 155 24.5t121 73.5t78 121l283 -51q-34 -125 -121.5 -218.5t-219 -145t-299.5 -51.5z" />
    <glyph glyph-name="uni0248" unicode="&#x248;" horiz-adv-x="1554" 
d="M1021 2048h308v-1452q0 -197 -77.5 -337t-217.5 -213.5t-328 -73.5q-173 0 -310.5 63t-217 183.5t-79.5 293.5h307q0 -85 39.5 -147t109 -96.5t159.5 -34.5q98 0 166.5 41.5t104.5 122.5t36 198v1452zM714 1115v207h919v-207h-919z" />
    <glyph glyph-name="uni0249" unicode="&#x249;" horiz-adv-x="701" 
d="M201 1536h299v-1636q0 -154 -55.5 -260t-164 -161t-267.5 -55h-30.5t-30.5 1v257h24.5h23.5q106 0 153.5 56.5t47.5 163.5v1634zM-111 802v206h919v-206h-919zM349 1773q-78 0 -133.5 52.5t-55.5 125.5q0 74 55.5 126.5t133.5 52.5t133.5 -52.5t55.5 -126.5
q0 -73 -55.5 -125.5t-133.5 -52.5z" />
    <glyph glyph-name="uni024A" unicode="&#x24a;" horiz-adv-x="2242" 
d="M1936 2048v-2189q0 -110 64.5 -149.5t156.5 -39.5q23 0 45 2.5t40 5.5v-241q-30 -8 -73 -10.5t-91 -2.5q-92 0 -172 25.5t-141 79t-94.5 135.5t-33.5 195v458h-16q-77 -162 -233.5 -255t-363.5 -93q-190 0 -348.5 78.5t-274.5 220.5t-179 336.5t-63 425.5q0 227 63 418
t179 331.5t274.5 218.5t348.5 78q210 0 366 -92t231 -246h22v310h293zM1053 254q208 0 337.5 101.5t189.5 276t60 395.5q0 218 -63.5 393t-193 277.5t-327.5 102.5q-180 0 -311.5 -98.5t-203.5 -273t-72 -401.5q0 -240 73.5 -413t205.5 -266.5t305 -93.5z" />
    <glyph glyph-name="uni024B" unicode="&#x24b;" horiz-adv-x="1843" 
d="M1679 -576q-92 0 -172 25.5t-141 79t-94.5 135.5t-33.5 195v103h299v-103q0 -73 30 -114t80 -58t111 -17q22 0 44.5 2.5t40.5 5.5v-241q-30 -8 -73 -10.5t-91 -2.5zM776 -30q-186 0 -331.5 95.5t-228 273t-82.5 426.5t83.5 426t229.5 271t331 94q108 0 183 -28t125 -70.5
t82 -88.5t52 -82h138v-1048h-138q-27 -49 -77.5 -112t-138.5 -110t-228 -47zM1537 -38h-299v398l88 395l-81 480v301h292v-1574zM842 225q129 0 218.5 68.5t136 190.5t46.5 284q0 160 -46 280t-135 187t-220 67q-135 0 -225 -70t-135.5 -191t-45.5 -273q0 -154 46 -277
t136.5 -194.5t223.5 -71.5z" />
    <glyph glyph-name="uni024C" unicode="&#x24c;" horiz-adv-x="1850" 
d="M434 785h-405v257h405v-257zM256 0v2048h730q238 0 395.5 -82t235.5 -226.5t78 -333.5q0 -188 -78.5 -330.5t-236 -221.5t-394.5 -79h-554v266h525q151 0 245 43t138 125t44 197q0 116 -44.5 201t-139 130.5t-246.5 45.5h-388v-1783h-310zM1267 924l506 -924h-351
l-497 924h342z" />
    <glyph glyph-name="uni024D" unicode="&#x24d;" horiz-adv-x="1082" 
d="M201 0v1536h289v-244h16q42 124 148.5 195.5t241.5 71.5q28 0 66.5 -2t60.5 -5v-286q-18 5 -64 11.5t-92 6.5q-106 0 -188.5 -44.5t-130.5 -123t-48 -178.5v-938h-299zM-108 635v207h919v-207h-919z" />
    <glyph glyph-name="uni024E" unicode="&#x24e;" horiz-adv-x="1934" 
d="M1921 1626v-184h-1907v184h1907zM67 2048h351l535 -931h22l535 931h351l-743 -1244v-804h-308v804z" />
    <glyph glyph-name="uni024F" unicode="&#x24f;" horiz-adv-x="1601" 
d="M1505 1076v-194h-1415v194h1415zM394 -576q-67 0 -121.5 10.5t-82.5 22.5l72 245q83 -22 147 -19t113.5 48t87.5 147l37 102l-562 1556h320l389 -1192h16l389 1192h321l-634 -1741q-43 -120 -111 -203.5t-162 -125.5t-219 -42z" />
    <glyph glyph-name="uni0250" unicode="&#x250;" horiz-adv-x="1603" 
d="M955 1570q146 0 264 -54t186.5 -158.5t68.5 -255.5q0 -130 -50 -214t-135 -133t-190 -74t-214 -38q-138 -16 -223.5 -26.5t-125 -34t-39.5 -78.5v-7q0 -131 73.5 -203t218.5 -72q151 0 237.5 66.5t119.5 147.5l281 -64q-50 -140 -146 -226.5t-222.5 -126t-264.5 -39.5
q-92 0 -195.5 21.5t-194.5 78.5t-148.5 162.5t-57.5 273.5v1020h292v-210h12q28 58 86 114t149 93t218 37zM890 1330q-124 0 -212.5 -49t-135 -128.5t-46.5 -170.5v-198q16 16 61.5 29.5t103.5 23t113.5 17t91.5 12.5q87 11 158.5 37t114.5 74.5t43 128.5q0 111 -82.5 167.5
t-209.5 56.5z" />
    <glyph glyph-name="uni0251" unicode="&#x251;" horiz-adv-x="1814" 
d="M778 -32q-192 2 -337 104t-226 282t-81 414q0 232 85 409.5t233.5 278t338.5 100.5q135 0 237 -50.5t174.5 -140.5t119.5 -209h104l59 -384l196 -772h-256l-184 772q-15 74 -45 165t-79 174t-123.5 137t-179.5 54q-115 0 -202 -68.5t-135 -189.5t-48 -278
q0 -154 46.5 -277t129.5 -193.5t194 -70.5q101 0 177 55t129 140t86.5 177.5t49.5 166.5l165 772h255l-176 -772l-59 -389h-95q-48 -119 -123.5 -211.5t-182 -144.5t-247.5 -51z" />
    <glyph glyph-name="uni0252" unicode="&#x252;" horiz-adv-x="1814" 
d="M1642 825v-61q0 -231 -67.5 -410t-197.5 -281t-317 -102q-135 0 -235.5 52.5t-168.5 150.5t-109 235t-57 305v103q22 225 87 391t184.5 257t302.5 91t312 -93.5t197.5 -258t68.5 -379.5zM1317 764v61q0 129 -33 236.5t-108.5 172t-203.5 64.5q-124 0 -198.5 -64.5
t-116 -170t-65.5 -230.5v-112q18 -129 59.5 -241t118.5 -181t200 -69q126 0 202.5 73.5t110.5 194.5t34 266zM624 0h-277v1088q0 115 -29 153t-74 38q-10 0 -19.5 -2t-16.5 -2l-32 238q42 26 85.5 34.5t91.5 8.5q149 0 234 -110.5t85 -356.5v-767z" />
    <glyph glyph-name="uni0253" unicode="&#x253;" horiz-adv-x="1738" 
d="M962 -30q-140 0 -228.5 47t-138.5 110t-77 112h-25v-239h-292v1641q0 116 35.5 198.5t98.5 135t143 77t169 24.5q49 0 90.5 -2.5t72.5 -10.5v-241q-18 3 -40 5.5t-44 2.5q-62 0 -113 -17t-82 -58t-31 -114v-354h18q26 48 75 111t136 110.5t230 47.5q186 0 332 -94
t229.5 -271t83.5 -426t-83 -426.5t-228 -273t-331 -95.5zM895 225q134 0 224 71.5t136.5 194.5t46.5 277q0 152 -45.5 273t-136 191t-225.5 70q-130 0 -219.5 -67t-135.5 -187t-46 -280q0 -162 47 -284t136 -190.5t218 -68.5z" />
    <glyph glyph-name="uni0254" unicode="&#x254;" horiz-adv-x="1553" 
d="M130 489h305q6 -74 47 -132.5t110.5 -92t160.5 -33.5q136 0 212 72.5t106 185.5t30 234v66q0 125 -31 241.5t-108 192t-214 75.5q-150 0 -227 -93.5t-86 -244.5h-305q7 181 83 315t212 207.5t321 73.5q225 0 375.5 -103.5t225.5 -277.5t75 -386v-66q1 -205 -76.5 -375.5
t-227 -273t-367.5 -102.5q-178 0 -315.5 70.5t-218 188t-87.5 258.5z" />
    <glyph glyph-name="uni0255" unicode="&#x255;" horiz-adv-x="1602" 
d="M851 -31q-221 0 -381.5 100.5t-248 280.5t-87.5 417q0 231 88 409.5t248 279t376 100.5q175 0 312 -64.5t221.5 -180.5t101.5 -271h-291q-24 108 -109.5 186t-229.5 78q-125 0 -218.5 -65.5t-145.5 -186t-52 -284.5q0 -168 51.5 -291t145 -190.5t219.5 -67.5v-250z
M234 -80l-200 158q60 72 136 164t169 185t202.5 172t235 127t267.5 48q134 0 225 -43.5t137.5 -121.5t47.5 -183q0 -135 -76 -238.5t-212 -161t-315 -57.5v250q139 0 227.5 56t89.5 142q1 64 -45 94.5t-92 30.5q-80 0 -168.5 -42.5t-177 -112.5t-172 -153t-155 -165.5
t-124.5 -148.5z" />
    <glyph glyph-name="uni0256" unicode="&#x256;" horiz-adv-x="1738" 
d="M1679 -576q-92 0 -172 25.5t-140.5 79t-94.5 135.5t-34 195v443h299v-443q0 -73 30 -114t80 -58t111 -17q23 0 45 2.5t40 5.5v-241q-30 -8 -73 -10.5t-91 -2.5zM776 -30q-186 0 -331.5 95.5t-228 273t-82.5 426.5t83.5 426t229.5 271t331 94q143 0 230.5 -47.5
t136 -110.5t75.5 -111h18v761h299v-2048h-292v239h-25q-27 -49 -77.5 -112t-138.5 -110t-228 -47zM842 225q129 0 218.5 68.5t136 190.5t46.5 284q0 160 -46 280t-135 187t-220 67q-135 0 -225 -70t-135.5 -191t-45.5 -273q0 -154 46 -277t136.5 -194.5t223.5 -71.5z" />
    </font>
</defs>
</svg>
